<?xml version="1.0" standalone="no"?>
<!DOCTYPE svg PUBLIC "-//W3C//DTD SVG 1.1//EN" "http://www.w3.org/Graphics/SVG/1.1/DTD/svg11.dtd" >
<svg xmlns="http://www.w3.org/2000/svg">
<metadata>Generated by IcoMoon</metadata>
<defs>
<font id="Icons" horiz-adv-x="1024">
<font-face units-per-em="1024" ascent="960" descent="-64" />
<missing-glyph horiz-adv-x="1024" />
<glyph unicode="&#x20;" d="" horiz-adv-x="512" />
<glyph unicode="&#xe000;" d="M448 896v-128h512v128h-512zM320 512h640v128h-640v-128zM192 256h768v128h-768v-128zM64 0h896v128h-896v-128z" />
<glyph unicode="&#xe001;" d="M576 896h-512v-128h512v128zM704 640h-640v-128h640v128zM832 384h-768v-128h768v128zM64 128v-128h896v128h-896z" />
<glyph unicode="&#xe002;" d="M64 0h896v128h-896v-128zM64 256h896v128h-896v-128zM64 512h896v128h-896v-128zM64 896v-128h896v128h-896z" />
<glyph unicode="&#xe003;" d="M64 0h896v128h-896v-128zM192 256h640v128h-640v-128zM832 640h-640v-128h640v128zM64 896v-128h896v128h-896z" />
<glyph unicode="&#xe004;" d="M766.884 235.198c-56.876 10.438-117.376 70.060-141.376 95.872v65.442c42.624 52.626 72.376 131.372 74.252 204.376 14.624 42.81 38.496 113.434 2.376 177.876-46.874 83.744-202.124 207.438-177.126 176 24.998-31.378-130.246-92.256-177.126-176-36.122-64.442-12.25-135.066 2.376-177.876 1.876-73.006 31.628-151.75 74.254-204.376v-65.442c-24.064-25.81-84.5-85.434-141.498-95.872-72.942-13.504-112.378-68.064-95.252-204.186 8.622-67.878 172.876-97.126 337.248-94.63 164.376-2.496 328.626 26.752 337.126 94.63 17.126 136.12-22.256 190.682-95.254 204.186zM967.762 362.134c-32.126 5.876-66.376 39.688-80 54.31v37.062c24.122 29.81 40.998 74.374 41.998 115.75 8.312 24.186 21.816 64.186 1.376 100.628-26.496 47.436-114.496 117.498-100.25 99.686 8.25-10.31-18.31-26.502-46.938-47.436 4.064-53.248-10.188-101.81-20.684-133.19-1.626-29.248-7.688-59.060-16-88.434 6.994-17.376 16-33.812 26.688-47.002v-37.062c-13.69-14.624-47.814-48.436-80.064-54.31-1.624-0.312-2.874-0.748-4.376-1.126v-3.686c33.44-32.436 67.002-54.874 88.876-58.874 50.060-9.192 103.872-35.814 131.872-101.754 60.376 6.624 108.128 22.752 111.502 49.876 9.688 77.126-12.624 107.934-54 115.562zM355.262 352.822c-7.25 4.436-15.628 7.558-25.124 9.312-32.186 5.876-66.438 39.688-80.128 54.31v37.062c21.94 27.002 37.192 66.124 40.756 103.936-1.504 10.566-3.502 21.062-4.064 31.5-9.562 28.378-21.938 70.816-21.312 118.068-35.378 39.246-82.874 76-72.192 62.56 14.068-17.748-73.748-52.25-100.306-99.686-20.442-36.442-6.938-76.442 1.312-100.628 1.062-41.376 17.934-85.94 42.062-115.75v-37.062c-13.626-14.624-47.814-48.436-80.064-54.31-41.312-7.628-63.686-38.438-53.94-115.564 3.878-30.81 64.506-47.308 136.256-52.064 27.744 67.694 82.376 94.502 132.998 103.944 20.746 3.75 51.996 24.498 83.746 54.372z" />
<glyph unicode="&#xe005;" d="M64 640h256v256h-256v-256zM384 640h256v256h-256v-256zM704 896v-256h256v256h-256zM704 320h256v256h-256v-256zM704 0h256v256h-256v-256zM384 0h256v256h-256v-256zM64 0h256v256h-256v-256zM64 320h256v256h-256v-256zM384 320h256v256h-256v-256z" />
<glyph unicode="&#xe006;" d="M0 512h448v448h-448v-448zM0-64h448v448h-448v-448zM576 960v-448h448v448h-448zM576-64h448v448h-448v-448z" />
<glyph unicode="&#xe017;" d="M347.436 960l-40.626-158.004h-4.058l-42.624 158.004h-66.252l84.064-262.004v-110.246h48.25v117.498l88.062 254.752h-66.816zM557.624 787.814c0 22.31-7.622 40.564-23.064 54.688-15.308 14.124-19.060 25.626-43.246 25.626-26.566 0-33.062-11.252-48.876-24.506-15.686-13.498-23.5-31.494-23.5-53.998v-122.252c0-24.87 7.75-44.562 23.002-59.372 15.308-14.502 22.688-21.748 48.122-21.748 26.44 0 29.81 7.124 45.126 21.12 15.002 14.124 22.438 33.754 22.438 58.752v121.69zM743.814 867.872h-46.688v-186.496c-5.504-6.438-11.502-11.686-17.876-15.878-6.752-4-12-23.558-16.378-23.558-5.376 0-6.438 1.498-8.934 4.622-2.44 3.066-3.688 8-3.688 14.938v206.372h-46.75v-226.432c0-17.568 3.502-30.566 10.19-39.066 6.81-8.75 2.624-13.126 16-13.126 10.874 0 22.246 3.128 33.81 9.254 11.874 6.246 23.002 32.87 33.626 44.622v-49.626h46.688v274.374zM1024 304.376c0 105.62-83.624 191.246-187.002 191.246h-649.932c-103.316 0-187.066-85.626-187.066-191.246v-177.19c0-105.44 83.75-191.186 187.066-191.186h649.932c103.378 0 187.002 85.746 187.002 191.188v177.188zM766.31 29.69c-21.376 0-37.996 6.688-50.246 20.306-12.194 13.126-18.376 31.694-18.376 55.252v110.002c0 21.062 6.81 60 20.186 73.126 13.562 13.562 30.624 20.058 51.814 20.058 21.81 0 38.496-6.062 49.934-18.31 11.876-12.626 17.624-51.814 17.624-74.876v-46.438h-90.746v-61.94c0-12.998 1.684-21.81 4.812-26.874 3.188-4.936 8.308-7.502 16.124-7.502 7.75 0 13.124 2.124 16.248 6.376 3.066 4.25 4.814 13.312 4.814 28v11.066h48.748v-12.692c0-25.122-5.748-43.936-17.748-56.622-11.998-12.496-29.75-18.932-53.188-18.932zM788.5 206.874v8.626c0 10.376-1.748 39.252-5 43.564-3.064 4.436-8.562 6.682-15.814 6.682-7.436 0-12.934-2.246-16.186-6.682-3.25-4.312-4.998-33.19-4.998-43.564v-8.626h41.998zM607.188 29.062c-9.69 0-18.254 2.002-25.69 5.81-7.308 3.628-14.31 9.254-20.812 17.254v-19.564h-49.186v369.434h46.31v-111.686c6.69 7.75 16.692 13.754 23.688 17.816 7.564 4.058 15.002 6.124 22.688 6.124 15.314 0 27.314-5.69 35.314-16.562 8.064-10.88 12.124-26.816 12.124-47.694v-164.748c0-18.124-3.808-31.874-11.308-41.562-7.754-9.56-18.818-14.622-33.128-14.622zM605.748 247.25c0 8.564-6.062 15.060-9.312 19.624-3.75 4.442-8.812 6.438-15.246 6.438-3.626 0-6.938-0.748-10.438-2.438-3.252-1.562-9.504-4.25-12.942-7.686v-182.062c3.878-4 10.69-7.186 14.624-8.998 3.694-1.94 7.5-2.878 11.694-2.878 5.932 0 10.374 1.876 13.184 5.56 2.688 3.444 8.436 9.318 8.436 17.504v154.936zM416.436 63.124c-9-9.998-18.31-20.936-28.122-26.246-9.626-5.626-19.066-8.064-28.314-8.064-11.25 0-19.75 3.686-25.44 11.314-5.748 7.624-9.996 18.81-9.996 33.934v233.752h47.186v-216.5c0-5.94 1.062-10.19 3.060-12.942 2.124-2.558 5.44-4 10.002-4 3.5 0 11.002 1.754 16.5 5.442 5.498 3.436 13.44 8.056 18.004 13.31v214.69h45.932v-278.254h-48.812v33.564zM279.188 29.81h-46.874v325.69h-45.754v46.496h139.878v-46.496h-47.25v-325.69zM488.5 636.748c-7.75 0-13.748 2.19-17.748 6.566-4.25 4.308-6.316 10.496-6.316 18.56v129.812c0 6.438 2.316 11.566 6.688 15.438 4.442 4 10.188 6.002 17.376 6.002 7.686 0 11.002-2.002 15.814-6.002 4.684-3.872 7.188-9 7.188-15.438v-129.81c0-7.936-2.438-14.004-7.002-18.56-4.878-4.378-8.064-6.568-16-6.568z" />
<glyph unicode="&#xe01b;" d="M333.054 959.996c25.876-2.502 39.5-16 60.5-22.752 28.94-5.062 58.002-10.124 87-15.124 114.624-25.062 259.058 11 355.622 22.688 2.938-8.434 3.814-20.562 3.75-34.060 6.566-13.754-5.682-44.064-11.308-56.876-23.876-54.188-65.69-81.69-98.316-125.062-69.932-92.5-149.312-183.622-230.872-265.248-49.062-49.188-126.624-112.312-158.874-174.316 134.31-7.936 207.25-92.812 310.246-136.436 40.562-17.126 114.316-47.25 177.816-26.502 23.438 7.686 41.248 25.754 60.5 37.876 4.748-33.996 12.748-75.374 0-109.876-23.878-64.812-109.126-144.622-215.628-109.876-122.246 39.814-192.934 141.004-314.060 185.624-40.876 15.128-87.252 19.002-140 19.002-23.75 0-69.876-9.624-79.374-3.814-38.566 56.942 25.748 161.062 49.126 185.69 80.872 85.192 163.496 170.624 234.624 265.248 41.998 55.878 102.872 102.88 136.184 166.752-1.248 0-2.502 0-3.75 0-13.624-8.876-41.184 0.064-60.562-3.814-97.376-19.25-225.248-12.122-223.25 87.188 8.754 12.314 7.75 27.378 15.13 41.69 12.498 24.062 36.37 45.124 45.496 71.998z" />
<glyph unicode="&#xe01d;" d="M464 507.82c26.624-2.068 45.442 17.998 45.442 52.564 0 34.624 11.686 365.368-12.942 389.182-24.75 23.688-121.312 0.942-147.816-8.812-56.434-20.498-119.186-52.498-120.5-79.872-1.308-27.378 209.316-350.88 235.816-353.062zM691.502 426.38c47.308 10.124 200.186 41.876 203.438 85.126 3.188 43.124-88.748 193.062-127.002 193.062-21.996-0.812-189.248-223.314-161.376-265.19 17.376-25.998 37.568-23.122 84.94-12.998zM423.318 381.004c0 28.75-80.442 69.254-80.442 69.254s-147.124 70.56-174.376 67.744c-27.188-2.874-37.748-80.75-40.064-137-6.56-158.496 62.816-117.376 62.816-117.376s145.876 51.876 174.438 63.378c28.436 11.562 57.628 25.316 57.628 54zM473.5 265.816c-33.626 3.688-72-63.374-92.75-89.31-20.75-25.998-101-117.498-101.748-141.998-0.628-24.506 42.746-50.438 102.496-74.938 59.564-24.498 126.88-41.816 129.624 10.874 2.502 52.564 0 200.25 0 216.814 0.002 16.562 1.258 74.246-37.622 78.558zM850.69 244.256c-31.188 12.186-202.188 97.19-232.064 61.19-19-22.938-7.124-60.506 12.876-96.626 20.124-36 92.75-157.746 92.75-157.746s12.94-32.378 35.622-32.378c22.69 0 67.444 47.124 90.132 82.31 22.682 35.188 45.996 77.562 45.996 100.692 0 23.056-14.252 30.244-45.312 42.558z" />
<glyph unicode="&#xe01e;" d="M810.938 586.874c0 0 39.564 23.25 68.064 23.25 28.498 0 65.81 0 65.81 0l24.314 60h-412.378l4.378-45.126 24.248-12.812 107.060-4.186c0 0 6.502-23.25-10.938-36.064-17.748-12.562-173.684-150.938-173.684-150.938l-197.562 241.876c0 0 4.372 6.252 32.87 6.252 28.626 0 112.126 0 112.126 0v98.874h-455.246v-99.374c0 0 57.754 0 86.252 0s61.434-31.128 89.998-58.752c28.562-27.436 226.624-237.624 226.624-237.624l1.31-173.126c0 0-14.938-25.376-72-25.376-57.12 0-79.060-4.372-79.060-4.372v-40.628h452.372v29.754c0 0-13.062 19.494-24 19.494h-107.374c-13.126 0-17.562 14.752-17.562 33.876 0 18.88 0 149.876 0 149.876l254.378 225.126zM910.376 258.502l32.248-2.878 81.376 261.126-113.748 8.376 0.124-266.624zM860.692 128h97.81l4.812 91.872-102.624-2.494v-89.378z" />
<glyph unicode="&#xe01f;" d="M0 448c0-202.502 117.748-377.748 288.626-460.626l-244.312 669.004c-28.442-63.694-44.314-134.126-44.314-208.378zM857.624 473.812c0 63.314-22.752 107.186-42.188 141.254-25.94 42.182-50.248 77.812-50.248 120.058 0 47.066 35.624 90.816 85.998 90.816 2.188 0 4.376-0.25 6.56-0.442-91.058 83.5-212.37 134.502-345.682 134.502-178.938 0-336.314-91.814-427.814-230.752 12-0.436 23.314-0.684 32.94-0.684 53.562 0 136.556 6.56 136.556 6.56 27.5 1.562 30.752-38.874 3.13-42.246 0 0-27.628-3.188-58.624-4.876l186.496-554.502 112.064 336-79.814 218.5c-27.558 1.69-53.682 4.876-53.682 4.876-27.566 1.682-24.314 43.808 3.308 42.246 0 0 84.5-6.56 134.818-6.56 53.496 0 136.498 6.56 136.498 6.56 27.558 1.562 30.808-38.874 3.188-42.246 0 0-27.628-3.188-58.566-4.876l185.062-550.252 51.064 170.628c25.938 66.498 38.936 121.62 38.936 165.436zM521.062 403.188l-153.69-446.376c45.876-13.44 94.374-20.812 144.692-20.812 59.558 0 116.748 10.376 169.996 29.126-1.376 2.188-2.624 4.372-3.624 7.002l-157.374 431.060zM961.312 693.69c2.188-16.442 3.5-33.876 3.5-52.754 0-51.872-9.746-110.248-39.002-183.308l-156.312-452.128c152.126 88.752 254.502 253.624 254.502 442.5 0 89.062-22.688 172.684-62.688 245.69z" />
<glyph unicode="&#xe020;" d="M477.69 128h-224.564l-253.126 640h216.564l150.752-418.438 148.934 418.438h210.252l-248.812-640zM1024 657.498c0 59.878-47.5 108.314-106.124 108.314-58.438 0-105.996-48.436-105.996-108.314 0-59.75 47.558-108.122 105.996-108.122 58.624 0 106.124 48.372 106.124 108.122z" />
<glyph unicode="&#xe021;" d="M0 657.062c90.124 71.374 218.252 228 318.188 228 99.816 0 124.314-116.876 137.94-223.002 13.746-105.996 52.996-337.932 105.746-337.932 52.876 0 173.312 205.12 166.44 284.434-6.816 79.25-93.94 67.372-141.94 44.626 44.064 158.562 145.876 242.812 276.064 242.812s161.562-91.188 161.562-203.188c0-170.502-348.5-692.812-559.002-692.812-130.246 0-162.496 190.31-188.87 284.5-26.502 94.124-78.38 340.94-139.066 356.748-23.564 3.942-90.060-48.5-90.060-48.5l-47.002 64.314z" />
<glyph unicode="&#xe022;" d="M796.5 404.626c136.498 0 227.5 104.872 227.5 242.376 0 137.498-110.688 248.998-247.314 248.998-124.186 0-226.876-92.128-244.436-212.378h-7.936c-17.562 120.25-120.282 212.378-244.5 212.378-136.564 0-222.938-122.624-222.938-260.128 0-136.308 92.75-229.25 227.558-231.246v0 0-115.628l-284.434 115.628v-346.816l284.436 57.754v-115.564h455.064l-170.624 404.626h227.624c0.126 0-0.25 0 0 0zM279.814 576.626c-38.566 0-69.812 31.5-69.812 70.376 0 38.874 31.246 70.374 69.812 70.374 38.528 0 69.842-31.5 69.842-70.374 0.002-38.874-31.314-70.376-69.842-70.376zM712 647.002c0 38.874 31.252 70.374 69.69 70.374 38.746 0 69.934-31.5 69.934-70.374s-31.188-70.376-69.934-70.376c-38.438 0-69.69 31.502-69.69 70.376z" />
<glyph unicode="&#xe023;" d="M1024 764c-17.248-9.498-68.998-28.5-117.248-33.248 30.938 16.684 76.748 71.308 88.064 114.746-29.754-18.996-98.068-46.688-131.814-46.688 0 0 0-0.058 0.064-0.122-38.504 40.25-92.628 65.312-152.756 65.312-116.622 0-211.244-94.56-211.244-211.25 0-16.186 1.932-31.936 5.434-47.060h-0.064c-158.248 4.058-343.246 83.372-447.496 219.122-64-110.874-8.626-234.124 64.058-279.066-24.812-1.932-70.688 2.816-92.25 23.814-1.498-73.562 33.94-171.060 162.938-206.374-24.87-13.44-68.75-9.624-87.936-6.688 6.752-62.19 93.748-143.438 188.814-143.438-33.876-39.12-149.498-110.308-292.564-87.62 97.19-59.188 210.502-93.44 330.438-93.44 340.814 0 605.498 276.186 591.25 616.934 0 0.378-0.126 0.812-0.126 1.126 0 0.942 0.126 1.876 0.126 2.688 0 1.062-0.126 2.060-0.126 3.186 31 21.128 72.628 58.626 102.438 108.066z" />
<glyph unicode="&#xe024;" d="M397.562 141.748c-18.81 10.938-31.686 25.504-38.624 43.876-6.938 18.246-21.842 59.624-21.842 124.064v180.684h270.404v194.252h-270.406v275.376h-113.498c-7.188-57.376-8.91-76.25-28-113.44-19.098-37.12-44.474-85.932-76.064-112.434-31.564-26.504-75.218-52.436-119.532-66.626v-177.126h130.374v-285.498c0-50.88 5.408-89.624 16.186-116.376 10.848-26.81 30.19-52.064 58.158-75.814 27.974-23.688 89.94-54.876 89.94-54.876s49.722-19.25 101.248-19.25c45.376 0 87.66 4.498 126.718 13.504 39.066 8.998 97.062 30.374 145.256 52.812v175.244c-56.506-36.556-127.718-60.498-184.692-60.498-32.186 0.002-60.718 7.38-85.626 22.126zM884.562 210.938c-76.934 0-139.436-61.56-139.436-137.498 0-75.942 62.502-137.44 139.436-137.44 76.936 0 139.438 61.498 139.438 137.44 0 75.936-62.502 137.498-139.438 137.498z" />
<glyph unicode="&#xe025;" d="M568.876 557.69l66.496-46.938 104.126 46.938-0.626 52.25c-3.62 117.932-103.62 222.060-226.872 222.060-122.874 0-222.688-103.374-227.002-220.75v-316.814c0-28.562-24.122-51.814-53.748-51.814-29.81 0-60.564 12.128-60.564 40.876v164.502h-170.686c0 0 0-162.938 0-164.5 0-121.19 102.002-219.5 227.564-219.5 124.564 0 225.748 99.872 227.558 219.5v329.126c0 28.622 27.13 54.746 56.876 54.746 29.69 0 56.876-26.124 56.876-54.746v-54.936zM853.376 448v-164.5c0-28.69-30.874-47.124-60.626-47.124-29.746 0-53.876 23.188-53.876 51.874l0.626 159.75-104.126-51.814-66.498 51.814v-164.5c1.128-120.312 102.624-219.5 227.624-219.5 125.504 0 227.5 98.31 227.5 219.5 0 1.562 0 164.5 0 164.5h-170.624z" />
<glyph unicode="&#xe027;" d="M0-63.124h192.14v767.342h-192.14v-767.342zM768.562 704.218c-164.49-2.75-245.428-122.456-256.186-127.89v127.89h-192.14v-767.344h192.14v447.618c0 16.422 40.526 147.874 192.14 127.89 81.434-5.308 125.346-112.838 128.094-127.89v-447.618l191.39-0.874v531.238c-6.758 76.682-45.158 234.23-255.438 236.98zM96.070 960c-53.036 0-96.070-42.9-96.070-95.918s43.034-95.918 96.070-95.918 96.070 42.9 96.070 95.918-43.032 95.918-96.070 95.918z" />
<glyph unicode="&#xe028;" d="M865.996 509.248c-8.934 3.25-17.56 6.252-25.996 9.19-63.686 22.188-102.19 35.558-102.19 90.56 0 44.564 31.124 76.876 73.812 76.876 32.876 0 57.254-15.124 79.128-49.062 2.060-3.186 5.996-4.314 9.12-2.438l64.314 36.378c1.754 0.934 3.066 2.746 3.628 4.75 0.562 2.124 0.372 4.314-0.626 6.246-34.502 67.75-84.186 100.754-151.878 100.754-103.188 0-169.81-69.126-169.81-176.064 0-109.312 64.442-153.626 183.378-196.94 68.872-25.434 99.374-38.996 99.374-93.312 0-60.998-49.69-104.934-117.562-102.376-71.064 2.69-92.626 44.5-119.686 112.812-45.754 115.752-97.94 250.876-98.44 252.25-52.312 133.692-156.062 210.376-284.562 210.376-169.876 0-308-153.126-308-341.312 0-188.122 138.124-341.184 308-341.184 92.626 0 179.438 45.498 238.19 124.812 1.682 2.376 2.060 5.498 0.998 8.25l-38.808 99.244c-1.128 2.752-3.566 4.564-6.254 4.692-2.876 0.122-5.376-1.56-6.624-4.25-36.692-77.56-108.498-125.752-187.5-125.752-116.564 0-211.374 105.004-211.374 234.188 0 129.19 94.81 234.19 211.374 234.19 84.75 0 162.502-55.75 193.442-139.002l96.056-242.624 11.002-27.188c43.5-112.064 107.186-162.31 207.124-162.752 118.812 0 208.374 87.25 208.374 202.88 0 116.122-57.94 159.686-158.004 195.808z" />
<glyph unicode="&#xe029;" d="M897.786 954h-771.572c-60.864 0-110.214-49-110.214-109.414v-793.19c0-60.41 49.35-109.396 110.214-109.396h771.57c60.864 0 110.216 48.986 110.216 109.396v793.19c0 60.414-49.352 109.414-110.214 109.414zM512 680.476c121.728 0 220.43-97.956 220.43-218.792 0-120.856-98.702-218.828-220.43-218.828-121.744 0-220.446 97.97-220.446 218.828 0 120.836 98.702 218.792 220.446 218.792zM897.786 106.128c0-30.224-24.692-54.732-55.108-54.732h-661.34c-30.44 0-55.124 24.508-55.124 54.732v437.602h65.958c-6.836-26.264-10.836-53.67-10.836-82.048 0-181.268 148.052-328.222 330.662-328.222 182.622 0 330.678 146.954 330.678 328.222 0 28.378-4.014 55.784-10.852 82.048h65.958v-437.602zM897.786 680.476v-27.348h-117.58c-20.896 28.78-46.306 54.012-75.312 74.754v116.704h27.538c0 0 80.272 0 110.248 0 29.974 0 55.108-25.606 55.108-54.698-0.002-29.108-0.002-109.412-0.002-109.412z" />
<glyph unicode="&#xe02a;" d="M450.48 956.51c189.070 20.25 335.142-49.69 433.086-156.382 65.19-70.996 137.572-200.624 140.314-336.94 5.82-286.63-201.694-505.070-465.144-525.452-184.388-14.184-329.024 60.194-421.028 160.508-75.626 82.312-135.002 193.752-137.626 340.88-2.63 148.38 58.94 267.136 129.626 348.95 71.446 82.686 177.512 153.184 320.772 168.436zM719.18 427.124c68.192-87.060 191.826-144.124 196.51 20 2.124 75.63-27.56 167.134-60.19 220.632-63.438 104-206.7 199.876-372.896 188.502-186.506-12.684-326.77-143.688-364.898-312.882-13.932-61.748-27.31-155 20.002-176.44 46.754-21.126 109.196 19.564 140.386 56.124 69.5 81.692 56.63 209.942 52.13 324.948 198.134-56.004 280.386-182.508 388.956-320.884z" />
<glyph unicode="&#xe02b;" d="M600.252 928.236c34.874 19.564 50.124 32.248 50.124 32.248h-333.126c-66.752 0-252.126-75.808-252.126-252.806 0-177.062 192.25-215.002 262.002-212.192-39.124-47.75-5.624-91.308 15.374-113.684 20.876-22.502 16.626-29.504-8.372-29.504-25.124 0-334.502-3.374-334.502-224.876 0-221.498 411.124-237.498 546.254-118.124 135.124 119.38 105.876 284 1.37 358.38-104.498 74.434-143.494 109.562-76.622 168.558 66.874 59 119.874 106.752 119.874 216.376 0 109.626-90.624 165.69-90.624 165.69s65.496-9.754 100.374 9.934zM548.624 138.674c0-95.558-81.124-141.876-218.874-141.876-137.874 0-211.75 68.814-211.75 171.38 0 102.624 100.376 153.184 288.5 153.184 51-39.31 142.124-87.060 142.124-182.688zM349.374 539.116c-165.876 0-241.122 387.622-45.998 387.622 151.872 5.688 266.124-387.622 45.998-387.622zM898.998 831.864v126.060h-65.12v-126.060h-127.502v-65.44h127.502v-126.246h65.12v126.246h125.376v65.44h-125.376z" />
<glyph unicode="&#xe02c;" d="M832.020 956.924c-105.062-57.248-213.44-8.934-291.564 0-344.934 39.564-454.56-310.938-203.246-451.436-64.692-29.248-60.442-177.814 8.812-198.938-163.25-16.308-193.568-216.75-106.002-298.496 106.502-99.378 434.124-92.75 530.188 0 67.058 64.87 76.436 198.496 17.684 260.122-53.562 56.314-322.248 64.812-318.124 153.062 2.88 61.754 100.064 52 159.066 76.564 110.938 46.188 176.186 184.442 132.562 290.816 24.748 4 45.876 11.188 70.624 15.246 0 51 0 102 0 153.060zM407.892 635.49c-129.312 245.376 297.376 227.814 167.942 0-42.438-27.372-126.002-30.124-167.942 0zM646.524 153.428c11.436-110.002-244.378-114.878-274.004-38.252-24.876 64.562 6.124 82.874 79.564 99.5 83.188 18.874 186.746 12.378 194.44-61.248z" />
<glyph unicode="&#xe02d;" d="M958.124-31.252l-427.814 977.25c-3.558 8.504-11.558 14.002-20.434 14.002v0c-8.876 0-16.876-5.498-20.434-14.002l-423.566-977.186c-3-7.314-2.374-15.686 1.748-22.31 4.126-6.502 11.128-10.502 18.628-10.502h361.748v192l-128.064 64v64l128.064-64v192h128v-128l128.064 64v-64l-128.064-64v-64l192.064 128v-64l-192.064-128v-128h361.748c7.5 0 14.502 3.872 18.628 10.502 4.124 6.624 4.75 14.996 1.748 22.246z" />
<glyph unicode="&#xe02e;" d="M768 640c-106.060 0-192-85.94-192-192 0-105.94 85.94-192 192-192 105.876 0 192 86.060 192 192 0 106.060-86.124 192-192 192zM256 640c-106.060 0-192-85.94-192-192 0-105.94 85.94-192 192-192 105.94 0 192 86.060 192 192 0 106.060-86.060 192-192 192z" />
<glyph unicode="&#xe02f;" d="M755 604.75h-178.124v130.002c0 39.872 41.246 49.12 60.496 49.12 19.124 0 115.066 0 115.066 0v175.444l-131.88 0.684c-179.934 0-220.998-130.816-220.998-214.688v-140.562h-130.56v-180.75h130.56c0-232.064 0-488 0-488h177.314c0 0 0 258.56 0 488h150.622l27.504 180.75z" />
<glyph unicode="&#xe030;" d="M320.314 703.872c-0.25 1.004 0 64.064 0 64.064v192.064l-255.564-256.128h191.686c0 0 64.19-0.87 63.878 0zM901.754 831.5c-19.252 31.936-119.814 53.498-172 53.498-52.128 0-134.502 0-134.502 0s-44.942 62.938-146.060 72.876c-81.626 8-64.942-24.564-64.942-61.876v-256.128h-255.624c0 0-64.626 17.19-64.626-27.374 0-82.688 11.002-351.872 189.498-378.56 211.128-31.628 242.938 20.436 242.938 32 0 47.936 8.192 104 8.192 104s81.876-96.314 175.124-92.812c91.564 3.5 110.81-56.75 110.81-109.94 0-53.248 0-98.81 0-98.81s-0.372-36.312-55.308-36.312c-54.876 0-101.562 0-101.562 0s-38.438 4.056-38.438 44.056c0 39.944 24.186 50.63 46.188 50.63 21.934 0 38.44-2.688 38.44-2.688v72c0 0-172.506 24.056-172.506-106.688-0.002-130.562 68.624-153.372 142.748-153.372s120.812 0 120.812 0 189.064 1.94 189.064 417.876c0 415.936-39.058 445.624-58.246 477.624zM681.754 471.124c0 0 13.684 53.376 54.874 53.376 41.184 0 80.748-83.872 80.748-83.872s-86.252 30.496-135.622 30.496z" />
<glyph unicode="&#xe031;" d="M447.002 892.876c-122.156-53.126-236.064-119.060-294.938-195.558-113.312-147.38-117.682-347.566-24.434-497.44 83.84 221.376 189.408 470.502 319.372 692.998zM957.16 892.376c-278.624-196.186-516.5-503.936-707.468-819.814-8.532 5.94 140.064-70.56 228.998-70.56 123.034 0 244.908 55.686 327.22 162.56 164.496 214.002 153.004 796.69 151.25 727.814z" />
<glyph unicode="&#xe032;" d="M561.376-64c-162.624 0-293.94 38.808-394.060 116.626-111.502 86.376-167.316 210.062-167.316 371.124 0 157.626 54.438 287.124 163.314 388.626 105.812 98.434 236.436 147.624 392.058 147.624 119.628 0 225.692-36.876 318.44-110.438 100.126-79.438 150.188-178.688 150.188-297.69 0-99.494-32.25-187.622-96.75-264.25-67.814-80.556-149.504-120.812-244.876-120.812-50.374 0-86.060 18.068-106.938 54.19-46.31-36.122-94.688-54.19-145.060-54.19-58.81 0-106.56 26.004-143.060 78.068-32.94 47.25-49.376 101.996-49.376 164.372 0 79.878 25.31 155 76.062 225.312 55.060 76.442 120.306 114.688 195.494 114.688 29.192 0 51.752-3.75 67.502-11.308 17.126-8.314 34.124-24.314 51.002-48.064 3 21.44 8.126 35.75 15.622 43 7.378 7.124 21.626 10.746 42.752 10.746 44 0 66.004-17.498 66.004-52.684 0-3.814-0.314-7.936-1.006-12.378l-46.808-290.248c-8.812-54.060-13.126-84.312-13.126-90.874 0-15.814 8.378-23.694 25.192-23.694 15.436 0 36.748 9.818 64 29.376 36.25 26.124 64 63.25 83.124 111.436 17.184 42.938 25.69 89.442 25.69 139.316 0 95.25-33.69 171.622-101.312 228.998-63.134 54.126-142.194 81.128-237.324 81.128-120.872 0-221.184-41.562-300.806-124.628-79.692-83.122-119.442-186.624-119.442-310.496 0-127.628 41.816-225.69 125.504-294.124 76.562-62.624 178.686-93.94 306.308-93.94 119.002 0 218.376 34.938 298.376 104.812 11.75 13.748 29.94 33.748 54.376 60 14.814 15.058 32.94 22.688 54.502 22.688 11.374 0 21.248-4.562 29.44-13.69 8.25-9.184 12.306-19.622 12.306-31.308 0-15.444-8.498-35.75-25.682-60.942-13.754-20.626-28.25-38.188-43.316-52.626-46.688-43.75-106.124-77.496-178.374-101.184-65.876-21.754-133.376-32.562-202.624-32.562zM544.748 654.31c-44.686 0-84.436-38.246-119.374-114.81-30.002-64.876-44.94-123.064-44.94-174.752 0-66.56 26.066-99.814 78.188-99.814 34.874 0 67.814 42.938 98.752 128.756 26.56 72.684 39.75 131.436 39.75 176.306 0 21.004-3.686 39.13-11.064 54.38-9.062 19.938-22.81 29.934-41.312 29.934z" />
<glyph unicode="&#xe033;" d="M512 960c-282.774-0.064-512-229.226-512-512 0-282.782 229.226-512 512-512 282.782 0 512 229.218 512 512 0 282.774-229.218 511.936-512 512zM825.714 694.528c49.926-63.428 81.238-141.978 85.172-227.784-57.802 12.254-112.42 18.25-163.352 18.25v0h-0.376c-40.932 0-79.428-3.684-115.674-10.122-8.876 21.622-17.744 42.368-26.748 62.244 80.746 35.368 158.234 85.8 220.978 157.412zM512 847.452c94.24 0 180.668-32.938 249.096-87.804-52.374-62.68-121.546-108.050-196.16-140.168-52.494 101.484-103.176 174.102-137.86 218.468 27.432 6.002 55.744 9.504 84.924 9.504zM335.524 805.83c27.746-32.746 83.304-104.8 142.548-217.284-120.548-35.938-241.972-44.308-315.46-44.308-2.068 0-4.192 0-6.188 0h-0.064c-12.376 0-23 0.25-31.932 0.5 28.68 114.672 107.236 209.662 211.096 261.092zM112.548 448c0 1.876 0.064 3.75 0.192 5.746 11.372-0.434 25.994-0.812 43.618-0.812h0.064c80.302 0.564 220.534 7.25 362.58 52.122 7.748-16.94 15.372-34.562 22.998-52.936-94.862-31.68-169.604-82.236-224.85-132.604-53.242-48.492-89.178-96.43-110.174-128.48-58.802 69.608-94.428 158.972-94.428 256.964zM512 48.55c-88.924 0-170.852 29.372-237.346 78.742 14.186 23.24 44.436 67.862 92.68 114.044 49.618 47.552 118.11 96.55 207.596 125.674 30.372-85.242 57.868-182.664 78.864-292.342-44.18-16.808-91.86-26.118-141.794-26.118zM738.038 119.414c-20.252 99.238-45.746 188.604-73.68 268.464 25.936 3.688 53.18 5.812 81.93 5.812h1.12c47.686 0 99.986-5.934 156.792-18.808-19.62-105.61-80.802-196.602-166.162-255.468z" />
<glyph unicode="&#xe034;" d="M626.556 561.876h169.684c31.378 0 56.94 25.498 56.94 56.942v170.872c0 31.436-25.56 56.934-56.94 56.934h-169.684c-31.502 0-57.006-25.498-57.006-56.934v-170.874c0-31.442 25.504-56.94 57.006-56.94zM175.62 737.504c-180.346 0-175.598-111.564-175.598-111.564v-177.94c0-47.5 56.966-56.998 56.966-56.998h56.876v-174.874c-64.966-7.878-110.278-41.876-110.278-82.624 0-46.502 88.652-84.126 167.276-84.126 78.656 0 167.348 33.996 167.348 80.626 0 40.122-46.438 77.37-110.036 85.746l-0.34 175.252h54.56c54.624 0 59.346 56.998 59.346 56.998v180.312c0.004 109.192-166.12 109.192-166.12 109.192zM1020.488 621.248c0 56.876-56.934 56.876-56.934 56.876h-52.25v-148.25c0-35.624-28.498-26.124-28.498-26.124h-350.004c-26.188 0-26.188 26.124-26.188 26.124l1.254 143.5-54.938 5.248c-60.532 0-54.22-58.624-54.22-58.624v-115.124c0 0-8.468-56.876 48.5-56.876h65.344v-344.122c0-59.378 54.624-52.25 54.624-52.25h61.69c56.998 0 54.624 54.624 54.624 54.624v170.876c0 30.752 28.436 39.124 28.436 39.124 16.626 0 26.124-36.75 26.124-36.75v-171c0-59.124 78.316-59.124 78.316-59.124h29.684c56.942 0 61.624 54.502 61.624 54.502l3.628 344.122h49.81c56.936 0 62.876 61.69 62.876 61.69l-3.502 111.558z" />
<glyph unicode="&#xe035;" d="M371.026 562.246c231.776 66.502 425.464-69.312 425.464-69.312l-159.622-42.938-46.004 85.19c-43.252 7.872-92.372 10.374-144.812 1.562l108.562-220.064 469.376 134.816c0 0-170.254 266.438-677.94 180.314-2.938-0.5-5.626-1.19-8.564-1.626l-49.28 99.686-146.060-16.564 59.566-121.376c-308.098-126.752-171.566-425.81-171.566-425.81l470.030 134.874-129.15 261.248zM157.272 320.934c0 0-45.248 99.752 86.502 185.192l70.124-143.002-156.626-42.19z" />
<glyph unicode="&#xe036;" d="M951.814 574.626h-38.938c0 0-6.938 0-8.064 0-63.878 0-74.938 56.75-74.938 56.75l1.498-1.062c-7.5 183.186-146.686 328.62-336.87 329.81v-0.25h-152.030c-189.538-1.19-342.472-152.248-342.472-342.002 0-0.75 0 0.692 0 0.692v0-341.376c0-189.624 152.128-340.064 342.342-341.192v-0.122l342.342 0.25c171.188 3.5 339.316 151.438 339.316 341.064v0 230.060c0 36.378-35.624 67.378-72.186 67.378zM323.284 705.5c0.5 0 0.058-0.064 0.058-0.064v0h190.158c38.036-0.812 62.286-35.436 62.286-68.934 0-33.504-24.25-61.876-62.286-61.876v0h-190.16c0 0-1.876 0-2.374 0-34.092 0-68.716 28.872-68.716 62.874 0 33.998 36.966 68 71.034 68zM674.624 189.374v0h-351.284v2.004c0 0-1.876 0-2.374 0-34.092 0-68.154 32.748-68.154 66.808 0 34.004 33.94 61.004 68.032 61.004 0.5 0 1.876 0 1.876 0h354.904c38.124 0 58.246-30.378 58.246-63.942 0.002-33.498-23.184-65.874-61.246-65.874z" />
<glyph unicode="&#xe037;" d="M410.866 478.752c20.692 10.624 36.282 22.496 47.002 35.436 19.034 23.188 28.626 53.94 28.626 92 0 37-9.504 68.814-28.41 95.188-31.25 43.374-84.62 65.562-159.782 66.624h-298.308v-624.25h278.092c31.346 0 60.41 2.81 87.218 8.314 26.688 5.746 50.036 16.064 69.658 31.25 17.53 13.498 32.032 29.812 43.686 49.372 18.342 29.31 27.468 62.438 27.468 99.444 0 35.872-8.032 66.246-24.032 91.556-16.030 25.126-39.782 43.38-71.218 55.066zM123.148 659.436h134.188c29.562 0 53.97-3.124 72.966-9.624 22.036-9.434 33.126-28.436 33.126-57.626 0-26.188-8.436-44.436-24.998-54.874-16.876-10.248-38.56-15.374-65.344-15.374h-149.938v137.498zM335.398 263.124c-14.938-7.252-35.776-11.058-62.496-11.058h-149.754v166.31h151.846c26.496-0.124 47.034-3.624 61.594-10.376 26.246-12.128 39.374-34.376 39.374-66.938-0.002-38.31-13.5-64.314-40.564-77.938zM1019.994 432.186c-5.562 36.192-17.78 67.942-36.372 95.564-20.788 31.124-47.066 53.812-78.938 68.314-31.75 14.246-67.534 21.682-107.22 21.682-66.878 0-121.254-21.434-163.096-64.058-41.94-42.688-62.906-104.128-62.906-184 0-85.44 23.154-146.938 69.594-184.876 46.438-37.876 100-56.812 160.658-56.812 73.53 0 130.81 22.56 171.718 67.252 26.214 28.372 41.032 56.312 44.216 83.558h-121.752c-7.188-13.684-15.308-24.124-24.686-31.744-16.876-14.132-39.002-21.192-66.156-21.192-25.594 0-47.564 5.748-65.69 17.312-29.964 18.688-45.934 51.064-47.808 97.56h332.314c0.59 39.88-0.752 70.32-3.876 91.44zM694.528 420.128c4.34 30.182 14.906 53.932 31.778 71.622 16.788 17.44 40.594 26.31 71.188 26.31 28.126 0 51.724-8.314 70.688-24.87 19.034-16.506 29.658-40.94 31.814-73.062h-205.468zM960.026 704h-320v-64h320v64z" />
<glyph unicode="&#xe038;" d="M561.748-64h-99.528c-219.628 0-398.22 183.814-398.22 409.624v512c0 56.564 44.532 102.376 99.564 102.376 54.938 0 99.558-45.812 99.558-102.376v-512c0-112.942 89.344-204.812 199.098-204.812h99.528c109.816 0 199.128 80.376 199.128 179.188 0 100.998-53.562 179.186-99.502 179.186h-199.154c-55.034 0-99.564 45.94-99.564 102.438 0 56.564 44.532 102.376 99.564 102.376h199.154c164.63 0 298.626-172.186 298.626-384 0-211.688-178.688-384-398.252-384z" />
<glyph unicode="&#xe073;" d="M2.362 345.562c-11.532-53.998 21.344-128 51.092-153.562v256c-29.746-25.562-42.374-62.004-51.092-102.438zM877.374 471.25c-17.876 0-34.688-3.5-50.438-9.062-7.872 134.69-124.002 241.812-267.256 241.812-91.556 0-202.44-35.75-250.842-102.374v-409.626h568.536c81.002 0 146.626 62.502 146.626 139.564 0 77.184-65.624 139.686-146.626 139.686zM206.744 192h51.060v358.374h-51.060v-358.374zM104.552 192h51.092v307.252h-51.092v-307.252z" />
<glyph unicode="&#xe074;" d="M949.254 378.624c3.374 22.376 5.684 45 5.684 68.188 0 252.064-204.372 456.44-456.5 456.44-23.562 0-46.558-2.316-69.124-5.752-45.564 38.878-104.502 62.5-169 62.5-143.688 0-260.314-116.564-260.314-260.314 0-58.688 19.628-112.684 52.442-156.186-6.688-31.188-10.438-63.5-10.438-96.69 0-252.188 204.314-456.558 456.434-456.558 32.378 0 64 3.496 94.44 9.934 45.746-39.872 105.374-64.186 170.808-64.186 143.752 0 260.314 116.562 260.314 260.314 0 71.060-28.5 135.372-74.746 182.31zM711.438 248c-17.934-25.562-44.314-45.562-78.938-60-34.624-14.56-75.688-21.748-123.124-21.748-56.996 0-104 9.876-140.998 29.684-26.19 14.19-47.5 33.192-63.936 56.998-16.376 23.694-24.626 46.816-24.626 69.256 0 13.062 4.934 24.186 14.752 33.434 9.876 9.31 22.432 13.94 37.626 13.94 12.306 0 22.81-3.566 31.308-10.876 8.5-7.188 15.814-17.94 21.81-32.126 7.38-16.936 15.316-30.996 23.814-42.31 8.5-11.374 20.564-20.75 36-28.064 15.502-7.374 35.874-11.058 61-11.058 34.688 0 62.816 7.374 84.442 22.246 21.624 14.816 32.5 33.312 32.5 55.564 0 17.562-5.812 31.874-17.504 42.81-11.688 11-26.746 19.378-45.312 25.19-18.496 5.748-43.124 11.936-74.19 18.438-41.434 8.936-76.122 19.374-104.058 31.252-27.942 12-50.188 28.25-66.502 48.872-16.436 20.69-24.626 46.316-24.626 76.876 0 29.248 8.626 55.124 26.002 77.812 17.248 22.624 42.31 40.128 75.188 52.25 32.812 12.192 71.314 18.252 115.686 18.252 35.374 0 66.060-4 91.878-12.064 25.876-8.064 47.308-18.81 64.372-32.186 16.998-13.44 29.504-27.5 37.376-42.188 7.878-14.688 11.814-29.062 11.814-43.002 0-12.812-4.94-24.372-14.688-34.624-9.876-10.188-22.188-15.374-36.876-15.374-13.376 0-23.564 3.124-30.502 9.248-6.932 6.124-14.496 16.186-22.624 30.188-10.496 20-23.060 35.686-37.812 46.874-14.688 11.188-38.31 16.812-70.874 16.812-30.124 0-54.44-6.060-72.94-18.246-18.562-12.128-27.752-26.816-27.752-43.942 0-10.624 3.13-19.808 9.44-27.5 6.254-7.75 14.938-14.31 26.004-19.872 10.938-5.562 22.124-9.876 33.434-13.126 11.25-3.060 29.876-7.686 55.878-13.69 32.498-6.996 61.932-14.746 88.312-23.188 26.376-8.436 48.806-18.682 67.308-30.682 18.56-12.128 33-27.38 43.316-45.818 10.374-18.44 15.558-41.062 15.558-67.874 0.002-32-8.998-60.876-26.936-86.438z" />
<glyph unicode="&#xe075;" d="M164.526 283.41c45.912 0 87.384 18.926 117.24 49.282l415.31-210.246c-1.004-7.238-2.252-14.366-2.252-21.796 0-90.946 73.708-164.648 164.592-164.648 90.876-0.002 164.584 73.702 164.584 164.646 0 90.762-73.708 164.59-164.584 164.59-46.412 0-88.202-19.488-118.058-50.408l-414.62 209.87c1.062 7.682 2.374 15.304 2.374 23.366 0 8.866-1.312 17.552-2.624 26.166l414 207.936c29.978-31.416 72.076-51.278 118.93-51.278 90.876 0 164.584 73.704 164.584 164.584-0.002 90.818-73.71 164.526-164.586 164.526-90.882 0-164.592-73.708-164.592-164.526 0-7.118 1.248-13.74 2.060-20.614l-417.056-209.62c-29.728 29.23-70.332 47.344-115.302 47.344-90.818 0-164.526-73.702-164.526-164.52 0-90.88 73.708-164.654 164.526-164.654z" />
<glyph unicode="&#xe076;" d="M747.374 106.184c127.628 81.31 212.626 226.622 212.626 392.498 0 254.752-200.626 461.312-448 461.312-247.468 0-448-206.56-448-461.312 0-254.816 200.532-461.376 448-461.376 36.376 0 71.75 4.626 105.624 13.062 42.504-78.624 107.252-134.246 244.812-107.624v78.182c0.002 0.002-88.184 22.506-115.062 85.258zM744.25 437.684c0-77.062-24.122-146.938-63.316-198.624-49.248 53.248-126.432 97.062-224.372 91.494v-90.69c0 0 66.44-2.682 111.938-82.060-17.062-5.124-34.81-7.872-53.126-7.872-126.342 0-228.782 128.812-228.782 287.75 0 20.372 0 98.438 0 118.81 0 158.938 102.438 287.75 228.782 287.75 126.438 0 228.876-128.814 228.876-287.75 0-20.37 0-98.438 0-118.808z" />
<glyph unicode="&#xe077;" d="M536.23 960c-281.982 0-424.23-200.378-424.23-367.438 0-101.19 38.608-191.186 121.53-224.69 13.686-5.248 25.802-0.25 29.754 14.688 2.764 10.316 9.232 36.376 12.118 47.252 3.986 14.752 2.482 20-8.538 32.748-23.886 27.942-39.172 64.064-39.172 115.316 0 148.684 112.242 281.69 292.216 281.69 159.198 0 246.956-96.442 246.956-225.44 0-169.498-75.706-312.5-188.072-312.5-62.212 0-108.758 50.808-93.788 113.184 17.832 74.38 52.324 154.816 52.324 208.692 0 48.122-26.118 88.372-79.946 88.372-63.496 0-114.432-65.184-114.432-152.308 0-55.5 18.894-93.062 18.894-93.062s-64.938-272.814-76.334-320.504c-22.722-95.188-3.386-211.744-1.754-223.494 0.938-7.002 10.040-8.692 14.058-3.38 5.868 7.566 81.482 100.064 107.156 192.5 7.314 26.066 41.778 161.69 41.778 161.69 20.622-39.002 80.884-73.376 144.978-73.376 190.774 0 320.276 172.312 320.276 403.128-0.002 174.428-149.154 336.932-375.772 336.932z" />
<glyph unicode="&#xe079;" d="M336.312 333.748h193.184c184.752 0 339.126 113.874 380.504 307.564 46.808 219.124-110.38 318.688-245.566 318.688h-460.5l-203.934-936.562h270.124l66.188 310.31zM432.93 769.376h132.38c66.188 0 110.374-56.998 90.938-128.064-16.564-71.316-85.376-128.186-154.376-128.186h-126.936l57.994 256.25zM970.804 783.936c21.192-47.124 28.192-106.308 12.814-178.874-41.434-193.69-195.808-307.566-380.554-307.566h-193.126l-66.19-310.31h-227l-11.188-51.186h270.188l66.188 310.31h193.128c184.746 0 339.122 113.876 380.552 307.564 21.754 101.94-0.814 177.748-44.812 230.062z" />
<glyph unicode="&#xe07b;" d="M327.628 205.248c24.652 8.756 47.462 20.192 68.436 34.63 20.934 14.374 40.652 30.938 59.34 49.876 18.624 18.994 37.754 38.808 57.312 58.994 17.624-20.186 36.282-40 55.878-58.994 19.534-18.938 40.216-35.502 62.092-49.876 21.876-14.44 45.498-25.876 70.688-34.63 25.186-8.686 52.064-13.248 81-13.248 37.062 0 71 6.624 101.062 20.128 30.374 13.31 55.876 31.936 76.248 55.308 20.564 23.814 36.378 51.186 47.566 82.814 11.31 31.19 16.75 65.25 16.75 101.25 0 36.064-5.44 69.312-16.748 99.872-11.188 30.502-27.002 57.126-47.566 79.814-20.372 22.566-45.56 40.434-75.308 53.44-29.818 12.872-63.436 19.374-100.75 19.374-29.754 0-57.376-4.684-83.066-13.876-25.56-9.312-49.31-21.498-71.124-36.812-21.94-15.188-42.502-33.062-61.594-53.434-19.128-20.256-37.504-41.126-55.128-62.38-18.656 22.252-37.434 43.25-56.588 63.128-19.13 19.872-39.596 37.498-61.44 52.686-21.97 15.314-45.69 27.5-71.314 36.812-25.652 9.19-53.748 13.876-84.532 13.876-37.184 0-70.714-6.752-100.556-20.122-29.818-13.44-55.002-31.5-75.468-54.124-20.506-22.63-36.096-49.504-46.752-80.506-10.786-30.996-16.066-64.498-16.066-100.498 0-36.186 5.594-69.932 16.716-101.312 11.188-31.502 27.564-58.56 48.972-81.126 21.376-22.874 47.028-40.872 76.782-54.182 29.812-13.506 63.816-20.13 101.996-20.13 30.818 0 58.408 4.562 83.162 13.248zM162.060 364.064c-19.59 21.31-29.344 48.498-29.344 81.81 0 30.56 9.568 58.060 28.594 82.624 19.098 24.5 44.974 36.75 77.53 36.75 17.722 0 35.444-4 53.126-11.808 17.722-7.814 34.72-17.818 50.97-29.818 16.346-12 31.878-25.248 46.784-39.494 14.97-14.374 28-27.564 39.124-39.566-11.124-12.94-23.686-26.124-37.658-39.564-13.964-13.56-28.902-25.56-44.75-36.122-15.814-10.502-32.66-19.438-50.252-26.316-17.748-7.124-35.468-10.376-53.094-10.376-34.464 0.002-61.464 10.568-81.030 31.88zM729.876 341.81c-17.248 6.566-33.69 15.066-49.498 25.626-15.814 10.752-30.938 22.814-44.94 36-13.876 13.56-26.938 27.314-38.938 41.124 11.128 12 23.814 25.192 37.752 39.566 13.998 14.246 28.622 27.494 44 39.494 15.188 12 31.624 22.004 48.872 29.818 17.312 7.808 35.252 11.808 53.754 11.808 34.56 0 61.684-11.494 81.684-34.688 20-23.186 30.066-50.81 30.066-83.308 0-32.378-9.19-59.686-28-81.812-18.502-22.124-45.19-33.254-79.5-33.254-19.688 0.002-37.94 3.254-55.252 9.626z" />
<glyph unicode="&#xe0f3;" d="M574.924 385.076c-81.050-81.1-174.95-158.618-212.070-121.446-53.146 53.094-85.862 99.38-203.008 5.274s-27.188-156.876 24.32-208.384c59.392-59.34 280.78-3.124 499.66 215.706 218.778 218.828 275.098 440.268 215.654 499.66-51.456 51.508-114.176 141.414-208.332 24.32s-47.872-149.862 5.274-203.008c37.018-37.172-40.448-131.022-121.498-212.122z" />
<glyph unicode="&#xe0f4;" d="M710.502 960h-397.004c-57.498 0-104.5-47.002-104.5-104.5v-815.002c0-57.446 47.002-104.498 104.5-104.498h397.004c57.498 0 104.5 47.052 104.5 104.5v815c0 57.498-47.002 104.5-104.5 104.5zM512-22.22c-40.346 0-73.114 23.398-73.114 52.276s32.768 52.276 73.114 52.276c40.396 0 73.114-23.398 73.114-52.276s-32.718-52.276-73.114-52.276zM731.392 134.554h-438.836v689.612h438.836v-689.612z" />
<glyph unicode="&#xe0f5;" d="M788.582 222.566l-134.452 385.844c-37.018 106.188-151.91 164.864-260.762 135.884l-101.17 196.302c-9.164 17.766-30.618 24.576-47.974 15.206-17.356-9.422-24.012-31.438-14.848-49.204l98.764-191.642c-78.694-52.224-119.604-151.194-93.696-244.378l109.568-394.036c30.822-110.746 157.696-167.168 285.236-128.154 125.9 44.188 197.172 165.736 159.334 274.178zM455.628 503.142c-37.324-12.236-77.362 8.806-89.344 47.156-11.98 38.298 8.602 79.308 45.978 91.546 37.376 12.288 77.414-8.806 89.396-47.104s-8.602-79.31-46.030-91.598z" />
<glyph unicode="&#xe0f6;" d="M435.2 908.8h-46.028c-11.316 0-20.532-9.216-20.532-20.48v-194.56h-181.044c-8.448 0-18.944-1.946-28.98-5.018-10.136-3.122-19.812-7.424-26.724-12.134l-121.6-83.456c-6.862-4.71-10.292-10.906-10.292-17.152s3.43-12.442 10.292-17.152l121.6-83.456c6.912-4.71 16.588-9.012 26.726-12.134 10.034-3.072 20.53-5.018 28.978-5.018h181.044v-450.56c0-11.316 9.216-20.48 20.48-20.48h46.080c11.316 0 20.48 9.216 20.48 20.48v880.64c0 11.264-9.164 20.48-20.48 20.48zM1013.708 695.5l-121.6 83.456c-6.86 4.71-16.538 9.012-26.676 12.134-10.084 3.124-20.58 5.070-29.028 5.070h-350.004l41.012-235.52h308.992c8.448 0 18.944 1.946 29.030 5.018s19.814 7.424 26.676 12.084l121.6 83.456c6.91 4.76 10.29 10.956 10.29 17.202s-3.38 12.442-10.292 17.1z" />
<glyph unicode="&#xe0f7;" d="M81.612 689.356c24.986-13.466 371.148-199.372 384.052-206.284 12.852-6.912 29.542-10.24 46.336-10.24 16.844 0 33.536 3.328 46.388 10.292 12.902 6.912 359.014 192.82 384 206.284 25.036 13.414 48.69 55.552 2.764 55.552h-866.252c-45.928 0-22.324-42.138 2.712-55.604zM952.986 586.956c-28.416-14.848-377.19-197.172-394.598-206.284s-29.544-10.292-46.388-10.292c-16.794 0-28.928 1.178-46.336 10.292s-366.234 191.488-394.598 206.284c-20.020 10.446-19.866-1.792-19.866-11.212s0-375.552 0-375.552c0-21.504 28.62-49.152 50.79-49.152h820.070c22.22 0 50.74 27.648 50.74 49.1 0 0 0 366.132 0 375.552 0 9.472 0.204 21.71-19.814 11.264z" />
<glyph unicode="&#xe0f8;" d="M957.132 825.088c-17.56-6.196-886.834-312.474-903.936-318.516-14.54-5.12-17.818-17.664-0.512-24.524 20.532-8.244 194.356-77.876 194.356-77.876h-0.052l115.252-46.182c0 0 554.854 407.5 562.38 412.98 7.526 5.53 16.282-4.864 10.804-10.804-5.478-5.99-402.996-435.916-402.996-435.916-0.052 0-0.052 0-0.052 0l-23.142-25.804 30.668-16.486c0 0 238.080-128.154 255.028-137.318 14.848-7.988 34.202-1.332 38.502 17.152 5.068 21.812 145.664 627.814 148.788 641.228 4.096 17.56-7.474 28.262-25.088 22.066zM361.216 81.306c0-12.646 7.116-16.128 16.948-7.22 12.8 11.674 145.868 131.072 145.868 131.072l-162.816 84.276v-208.128z" />
<glyph unicode="&#xe0f9;" d="M847.924 783.974c-73.83 73.882-129.28 62.822-129.28 62.822l-554.292-554.29-51.712-243.866 243.866 51.712 554.24 554.24c0 0 11.11 55.45-62.822 129.382zM341.964 129.69l-83.098-17.92c-8.038 15.002-17.716 30.004-35.38 47.718-17.664 17.664-32.716 27.29-47.718 35.328l17.972 83.148 24.012 24.012c0 0 45.26-0.922 96.308-51.968 51.098-51.098 52.020-96.358 52.020-96.358l-24.116-23.96z" />
<glyph unicode="&#xe0fa;" d="M217.804-51.814c15.668 51.252 39.424 123.444 71.22 227.892 138.548 22.374 195.892-17.868 283.904 142.54-71.424-22.324-157.542 41.42-152.884 69.018 4.608 27.648 200.346-19.916 328.448 165.786-161.484-36.3-213.196 43.674-192.358 55.756 48.076 27.904 190.822 11.572 266.906 87.194 39.22 38.912 57.548 133.58 41.626 167.372-19.2 40.756-136.038 101.58-200.448 95.898-64.41-5.734-165.428-250.316-195.38-248.372s-35.942 109.518 16.334 209.562c-55.142-24.884-156.16-102.348-187.852-168.55-59.034-123.188 5.53-405.658-15.156-415.744-20.736-10.036-90.42 129.69-111.206 193.024-28.416-97.076-29.082-194.356 53.964-323.584-31.334-84.788-48.436-182.374-51.046-231.988-1.23-39.73 37.016-48.23 43.928-25.804z" />
<glyph unicode="&#xe0fb;" d="M254.004-64c-68.404 0-132.454 28.98-178.74 75.316-89.6 89.6-114.636 246.068 11.008 371.712 73.676 73.574 368.588 368.486 515.788 515.686 52.276 52.276 118.732 72.448 182.426 55.348 62.516-16.692 113.818-67.942 130.56-130.508 17.050-63.692-3.174-130.202-55.398-182.426l-493.158-493.21c-28.16-28.16-59.956-44.852-91.956-48.18-31.642-3.328-61.85 6.86-83.046 28.006-38.4 38.348-43.828 110.54 19.968 174.284l346.368 346.47c14.234 14.182 37.324 14.182 51.558 0 14.234-14.234 14.234-37.324 0-51.558l-346.42-346.42c-29.952-29.952-32.716-58.572-19.968-71.322 5.58-5.53 14.080-8.090 23.86-7.066 15.002 1.588 32.102 11.316 48.076 27.29l493.158 493.158c33.844 33.844 46.796 73.626 36.506 112.076-10.138 37.836-41.164 68.864-79.002 79.002-38.452 10.292-78.234-2.714-112.076-36.506-147.148-147.196-442.060-442.108-515.686-515.684-96.052-96.052-73.062-206.592-11.060-268.646 62.054-62.004 172.596-85.044 268.698 11.060l515.738 515.686c14.182 14.234 37.324 14.234 51.508 0 14.234-14.234 14.234-37.324 0-51.508l-515.738-515.736c-60.774-60.826-128.768-86.324-192.972-86.324z" />
<glyph unicode="&#xe0fc;" d="M990.156 471.398c-20.122 21.35-116.94 116.326-161.228 159.692-13.62 13.26-33.076 21.708-53.402 21.708-20.276 0-263.476 0-263.476 0s-243.2 0-263.526 0-39.832-8.498-53.4-21.758c-44.288-43.366-141.21-138.342-161.28-159.692-25.036-26.624-38.758-47.872-32.204-74.188l28.724-157.388c6.502-26.316 35.328-47.872 64.052-47.872h835.174c28.724 0 57.548 21.556 64.052 47.872l28.774 157.388c6.5 26.316-7.222 47.614-32.26 74.238zM719.258 437.3c-5.222 0-9.882-2.662-12.236-6.81l-41.83-104.244h-306.332l-41.83 104.244c-2.304 4.148-7.066 6.81-12.236 6.81h-181.504l104.5 118.22h568.524l104.448-118.22h-181.504z" />
<glyph unicode="&#xe0fd;" d="M972.8 99.84c0 0-102.4 498.33-551.68 498.33v197.99l-369.92-330.496 369.92-342.58v223.13c243.866 0 424.55-21.606 551.68-246.374z" />
<glyph unicode="&#xe0fe;" d="M369.92 658.944v137.216l-369.92-330.496 369.92-342.58v142.284l-216.32 200.296 216.32 193.28zM625.92 598.22v197.94l-369.92-330.496 369.92-342.58v223.13c168.602 0 270.95-21.606 398.080-246.374 0 0-18.79 498.38-398.080 498.38z" />
<glyph unicode="&#xe0ff;" d="M602.88 346.214v-223.078l369.92 342.528-369.92 330.496v-197.94c-449.28 0-551.68-498.38-551.68-498.38 127.13 224.768 307.814 246.374 551.68 246.374z" />
<glyph unicode="&#xe100;" d="M758.784 220.262c-126.208 45.978-166.554 84.788-166.554 167.884 0 49.868 38.554 33.588 55.45 124.928 7.014 37.888 41.062 0.614 47.616 87.092 0 34.458-18.586 43.060-18.586 43.060s9.472 51.046 13.158 90.266c4.506 48.946-28.262 175.308-203.468 175.308-175.156 0-208.026-126.362-203.418-175.308 3.686-39.22 13.158-90.266 13.158-90.266s-18.636-8.55-18.636-43.060c6.502-86.476 40.55-49.204 47.564-87.092 16.948-91.34 55.5-75.060 55.5-124.928 0-83.098-40.346-121.908-166.554-167.884-126.668-46.080-208.896-93.132-208.896-125.236 0-32.052 0-107.776 0-107.776h962.56c0 0 0 75.724 0 107.776 0.002 32.052-82.276 79.106-208.894 125.236z" />
<glyph unicode="&#xe101;" d="M1024-2.56c0 0-1.996 193.894-13.876 213.964-17.664 29.952-58.676 50.484-134.86 82.33-75.93 31.744-100.25 58.572-100.25 115.866 0 34.458 23.194 23.194 33.382 86.22 4.198 26.164 24.678 0.46 28.62 60.108 0 23.808-11.162 29.748-11.162 29.748s5.632 35.226 7.884 62.31c2.764 33.792-17.050 120.986-122.47 120.986s-125.132-87.244-122.42-120.986c2.202-27.084 7.834-62.31 7.834-62.31s-11.162-5.94-11.162-29.748c3.942-59.7 24.422-33.996 28.672-60.108 10.138-63.028 33.332-51.764 33.332-86.22 0-38.964-11.264-63.846-42.342-85.708 165.888-83.046 188.16-99.994 188.16-174.234l0.002-152.218h230.656zM523.468 264.96c-101.324 42.292-133.632 78.028-133.632 154.47 0 45.876 30.924 30.924 44.492 114.996 5.58 34.868 32.972 0.564 38.144 80.128 0 31.744-14.9 39.628-14.9 39.628s7.578 46.95 10.548 83.098c3.688 44.954-22.732 161.28-163.276 161.28s-166.912-116.276-163.226-161.28c2.97-36.148 10.496-83.098 10.496-83.098s-14.846-7.884-14.846-39.628c5.274-79.616 32.564-45.312 38.196-80.128 13.568-84.070 44.492-69.068 44.492-114.996 0-76.442-32.41-112.18-133.632-154.47-30.874-12.902-86.324-32.922-86.324-80.948v-186.572h711.372c0 0 0 110.336 0 139.828 0 43.878-86.374 85.196-187.904 127.692z" />
<glyph unicode="&#xe102;" d="M633.702 220.262c-127.538 45.978-168.294 84.788-168.294 167.886 0 49.868 38.964 33.588 56.064 124.928 7.116 37.888 41.524 0.614 48.026 87.092 0 34.458-18.74 43.060-18.74 43.060s9.574 51.046 13.26 90.266c4.61 48.944-28.568 175.306-205.618 175.306s-210.228-126.362-205.62-175.308c3.738-39.27 13.312-90.266 13.312-90.266s-18.79-8.55-18.79-43.060c6.604-86.476 41.012-49.204 48.026-87.092 17.152-91.34 56.116-75.060 56.116-124.928 0-83.098-40.806-121.908-168.346-167.884-15.36-5.478-51.968-14.080-83.098-27.546v-205.516h819.2c0 0 0 75.724 0 107.776s-57.498 79.156-185.498 125.286zM870.4 499.2v153.6h-102.4v-153.6h-153.6v-102.4h153.6v-153.6h102.4v153.6h153.6v102.4h-153.6z" />
<glyph unicode="&#xe103;" d="M921.6 857.6h-819.2c-56.32 0-102.4-46.080-102.4-102.4v-614.4c0-56.32 46.080-102.4 102.4-102.4h819.2c56.372 0 102.4 46.080 102.4 102.4v614.4c0 56.32-46.028 102.4-102.4 102.4zM921.6 140.8h-819.2v614.4h819.2v-614.4zM460.8 340.48h-256v-92.16h256v92.16zM460.8 494.080h-256v-92.16h256v92.16zM460.8 647.68h-256v-92.16h256v92.16zM814.080 320c0 0-87.040 22.732-87.040 67.482 0 42.598 56.372 60.518 56.372 147.558 0 70.656-21.504 112.64-92.212 112.64s-92.16-41.932-92.16-112.64c0-87.040 56.32-104.96 56.32-147.558 0-44.748-86.988-67.482-86.988-67.482-5.172 0-5.172-71.68-5.172-71.68h256c0 0 0 71.68-5.12 71.68z" />
<glyph unicode="&#xe104;" d="M768 151.040h-665.6v460.8h132.864c0 0 35.276 45.876 111.104 102.4h-295.168c-28.262 0-51.2-22.938-51.2-51.2v-563.2c0-28.314 22.938-51.2 51.2-51.2h768c28.314 0 51.2 22.886 51.2 51.2v191.796l-102.4-84.224v-56.372zM684.134 506.88v-181.76l339.866 266.292-339.866 255.948v-160.256c-412.774-0.052-412.774-408.064-412.774-408.064 116.838 191.898 188.724 227.84 412.774 227.84z" />
<glyph unicode="&#xe105;" d="M512 857.6c-141.414 0-256-114.636-256-256 0-244.428 256-563.2 256-563.2s256 318.772 256 563.2c0 141.364-114.586 256-256 256zM512 460.288c-76.34 0-138.24 61.9-138.24 138.24s61.9 138.24 138.24 138.24 138.24-61.9 138.24-138.24-61.9-138.24-138.24-138.24z" />
<glyph unicode="&#xe106;" d="M1007.77 702.772l-239.308 149.862c-10.598 6.656-23.86 6.656-34.458 0l-222.004-139.060-222.004 139.008c-10.598 6.656-23.86 6.656-34.458 0l-239.308-149.81c-10.034-6.298-16.23-17.716-16.23-29.952v-599.398c0-12.596 6.452-24.268 16.998-30.464s23.398-6.042 33.74 0.46l222.004 139.060 222.004-139.060c10.598-6.656 23.86-6.656 34.508 0l222.004 139.060 222.004-139.060c5.272-3.328 11.262-5.018 17.254-5.018 5.684 0 11.366 1.536 16.486 4.556 10.496 6.196 16.998 17.87 16.998 30.464v599.4c0 12.236-6.196 23.654-16.23 29.952zM239.258 243.046l-172.288-107.878v517.836l172.288 107.878v-517.836zM478.516 135.168l-172.288 107.878v517.838l172.288-107.878v-517.838zM717.772 243.046l-172.236-107.878v517.836l172.236 107.878v-517.836zM956.98 135.168l-172.236 107.878-0.002 517.838 172.236-107.878 0.002-517.838z" />
<glyph unicode="&#xe107;" d="M505.446 939.468c-271.462-3.634-488.55-226.61-484.914-498.022 3.636-271.462 226.612-488.55 498.074-484.966 271.412 3.686 488.55 226.612 484.916 498.074-3.74 271.462-226.716 488.55-498.076 484.914zM517.172 60.006c-214.272-2.918-390.298 168.5-393.216 382.822-2.816 214.272 168.55 390.298 382.872 393.166 214.272 2.868 390.298-168.5 393.164-382.822s-168.498-390.248-382.82-393.166zM279.194 217.396c0 0 233.932 32.102 333.722 131.892 99.788 99.788 131.892 333.722 131.892 333.722s-233.884-32.156-333.672-131.894c-99.788-99.84-131.942-333.72-131.942-333.72zM461.568 500.634c41.932 41.984 122.112 71.73 190.924 90.214-18.484-68.66-48.384-149.452-90.060-191.078-27.852-27.852-73.012-27.852-100.864 0-27.904 27.852-27.904 73.010 0 100.864z" />
<glyph unicode="&#xe108;" d="M1009.612 945.664c-34.816 34.868-68.096 1.894-180.992-52.326-302.080-145.254-828.62-440.27-828.62-440.27l452.352-64.666 64.666-452.402c0 0 295.066 526.54 440.268 828.62 54.324 112.948 87.194 146.126 52.326 181.044zM901.12 829.236l-328.602-610.15-33.332 277.3 361.934 332.85z" />
<glyph unicode="&#xe109;" d="M512 888.32c-243.148 0-440.32-197.172-440.32-440.32 0-243.2 197.172-440.32 440.32-440.32 243.2 0 440.32 197.12 440.32 440.32 0 243.148-197.12 440.32-440.32 440.32zM547.84 91.392v197.888h-71.68v-197.888c-169.318 16.794-303.924 151.45-320.768 320.768h197.888v71.68h-197.888c16.844 169.318 151.45 303.974 320.768 320.768v-197.888h71.68v197.888c169.37-16.794 303.974-151.45 320.768-320.768h-197.888v-71.68h197.888c-16.794-169.318-151.398-303.974-320.768-320.768z" />
<glyph unicode="&#xe10a;" d="M768 294.4c-35.226 0-67.482-11.93-93.388-31.846l-267.212 160.308c1.278 8.19 2.2 16.588 2.2 25.138 0 8.602-0.922 16.948-2.202 25.14l267.212 160.308c25.908-19.918 58.164-31.848 93.39-31.848 84.788 0 153.6 68.762 153.6 153.6s-68.812 153.6-153.6 153.6-153.6-68.762-153.6-153.6c0-8.55 0.922-16.948 2.252-25.14l-267.212-160.358c-25.908 19.968-58.214 31.898-93.44 31.898-84.838 0-153.6-68.762-153.6-153.6 0-84.788 68.762-153.6 153.6-153.6 35.226 0 67.532 11.93 93.44 31.846l267.212-160.308c-1.33-8.19-2.252-16.536-2.252-25.138 0-84.788 68.812-153.6 153.6-153.6s153.6 68.812 153.6 153.6-68.812 153.6-153.6 153.6z" />
<glyph unicode="&#xe10b;" d="M348.16 448c0-90.47 73.37-163.84 163.84-163.84s163.84 73.42 163.84 163.84c0 90.47-73.37 163.84-163.84 163.84s-163.84-73.37-163.84-163.84zM231.884 509.44c28.11 128.82 142.848 225.28 280.116 225.28 79.206 0 150.836-32.102 202.7-83.968 24.012-24.012 62.924-24.012 86.938 0 23.962 24.012 23.962 62.924 0 86.886-74.138 74.086-176.538 119.962-289.638 119.962-183.398 0-338.636-120.524-390.81-286.72h-121.19v-122.88h163.84c51.148 0 63.692 41.626 68.044 61.44zM860.16 448c-51.098 0-63.692-41.626-68.044-61.44-28.11-128.82-142.798-225.28-280.116-225.28-79.156 0-150.836 32.052-202.7 83.968-24.012 24.012-62.924 24.012-86.886 0s-24.012-62.924 0-86.886c74.086-74.086 176.486-119.962 289.586-119.962 183.398 0 338.636 120.524 390.81 286.72h121.19v122.88h-163.84z" />
<glyph unicode="&#xe10c;" d="M880.076 747.468c-85.606 78.592-224.41 78.592-310.016 0l-58.060-53.35-58.112 53.35c-85.606 78.592-224.358 78.592-309.964 0-96.308-88.372-96.308-231.628 0-320.052l368.076-337.816 368.076 337.818c96.308 88.422 96.308 231.68 0 320.050z" />
<glyph unicode="&#xe10d;" d="M880.076 747.52c-85.606 78.54-224.41 78.54-310.016 0l-58.060-53.35-58.112 53.35c-85.606 78.54-224.358 78.54-309.964 0-96.308-88.422-96.308-231.628 0-320.052l368.076-337.868 368.076 337.868c96.308 88.372 96.308 231.63 0 320.052zM825.6 480l-313.6-292.556-313.548 292.556c-31.642 28.98-43.878 67.174-43.878 107.52 0 40.244 7.066 73.318 38.708 102.348 27.902 25.652 65.432 39.732 105.572 39.732 40.192 0 77.722-24.372 105.626-50.022l107.52-93.492 107.52 93.492c27.904 25.65 65.382 50.022 105.574 50.022s77.722-14.080 105.676-39.732c31.59-29.030 38.604-62.106 38.708-102.348 0-40.294-12.288-78.54-43.878-107.52z" />
<glyph unicode="&#xe10e;" d="M512 898.56l122.266-344.166h328.294l-267.878-202.138 95.744-354.816-278.426 212.684-278.426-212.684 95.744 354.816-267.878 202.138h328.294z" />
<glyph unicode="&#xe10f;" d="M962.56 554.394h-328.346l-122.266 344.166-122.214-344.166h-328.294l267.828-202.138-95.744-354.816 278.426 212.684 278.426-212.684-95.744 354.816 267.928 202.138zM511.948 310.58l-154.214-128.052 63.59 182.374-145.972 117.76 180.276-5.12 56.268 206.848 56.32-206.848 180.276 5.12-145.972-117.76 63.642-182.374-154.214 128.052z" />
<glyph unicode="&#xe110;" d="M698.778 583.014c-6.758 18.176 181.248 186.112 71.578 322.15-25.702 31.796-112.692-152.372-236.288-235.724-68.148-45.978-226.868-143.872-226.868-197.99v-350.26c0-65.074 251.596-133.99 442.828-133.99 70.094 0 171.572 439.040 171.572 508.826 0 69.99-216.064 68.762-222.822 86.988zM256 578.15c-33.638 0-153.6-20.48-153.6-159.846v-248.218c0-139.366 119.962-154.676 153.6-154.676s-51.2 29.286-51.2 115.66v326.3c0 90.522 84.838 120.78 51.2 120.78z" />
<glyph unicode="&#xe111;" d="M325.274 312.934c6.708-18.176-181.248-186.060-71.578-322.1 25.702-31.846 112.692 152.32 236.288 235.724 68.148 45.98 226.816 143.926 226.816 197.992v350.208c0 65.126-251.546 134.042-442.778 134.042-70.092 0-171.622-439.040-171.622-508.826 0-69.99 216.116-68.762 222.874-87.040zM768 317.85c33.69 0 153.6 20.428 153.6 159.846v248.166c0 139.366-119.91 154.726-153.6 154.726-33.638 0 51.2-29.338 51.2-115.66v-326.298c0-90.522-84.838-120.78-51.2-120.78z" />
<glyph unicode="&#xe112;" d="M296.96 335.36v317.44h-194.56c-56.32 0-102.4-46.080-102.4-102.4v-307.2c0-56.32 46.080-102.4 102.4-102.4h51.2v-153.6l153.6 153.6h256c56.32 0 102.4 46.080 102.4 102.4v93.184c-3.276-0.716-6.758-1.076-10.24-1.076h-358.4zM921.6 908.8h-460.8c-56.32 0-102.4-46.080-102.4-102.4v-409.6h358.4l153.6-153.6v153.6h51.2c56.32 0 102.4 46.080 102.4 102.4v307.2c0 56.32-46.080 102.4-102.4 102.4z" />
<glyph unicode="&#xe113;" d="M819.2 806.4h-614.4c-56.32 0-102.4-46.080-102.4-102.4v-358.4c0-56.32 46.080-102.4 102.4-102.4h204.8l204.8-153.6v153.6h204.8c56.32 0 102.4 46.080 102.4 102.4v358.4c0 56.32-46.080 102.4-102.4 102.4z" />
<glyph unicode="&#xe114;" d="M251.7 765.286c-82.432 0-149.3-68.762-149.3-153.6s66.868-153.6 149.3-153.6c149.248 0 49.766-296.96-149.3-296.96v-71.628c355.226 0 494.438 675.788 149.3 675.788zM681.728 765.286c-82.432 0-149.3-68.762-149.3-153.6s66.868-153.6 149.3-153.6c149.248 0 49.766-296.96-149.3-296.96v-71.628c355.278 0 494.49 675.788 149.3 675.788z" />
<glyph unicode="&#xe115;" d="M961.024 432.64l-410.828 411.188c-20.992 21.812-55.348 21.812-76.34 0l-410.88-411.188c-21.044-21.76-13.21-39.628 17.408-39.628h85.658v-315.802c0-22.784 0.972-41.42 42.188-41.42h199.424v316.826h208.64v-316.826h209.356c31.436 0 32.308 18.586 32.308 41.42v315.802h85.606c30.568 0 38.452 17.816 17.46 39.628z" />
<glyph unicode="&#xe116;" d="M819.2 857.6h-410.624c-56.32 0-101.376-45.056-101.376-101.376v-410.624c0-56.32 46.080-102.4 102.4-102.4h409.6c56.32 0 102.4 46.080 102.4 102.4v409.6c0 56.32-46.080 102.4-102.4 102.4zM819.2 345.6h-409.6v409.6h409.6v-409.6zM204.8 448h-102.4v-307.2c0-56.32 46.080-102.4 102.4-102.4h307.2v102.4h-307.2v307.2z" />
<glyph unicode="&#xe117;" d="M898.304 168.038l-193.484 193.484c29.184 47.974 45.978 104.192 45.978 164.454 0 174.9-151.604 326.502-326.554 326.502-174.9 0.002-316.724-141.822-316.724-316.722 0-174.95 151.552-326.554 326.502-326.554 58.164 0 112.64 15.77 159.488 43.162l194.508-194.56c19.098-19.046 49.92-19.046 68.916 0l48.282 48.23c18.996 19.048 12.084 43.010-6.912 62.004zM205.004 535.756c0 121.088 98.15 219.29 219.238 219.29 121.14 0 229.068-107.93 229.068-229.068s-98.15-219.29-219.29-219.29-229.016 107.93-229.016 229.068z" />
<glyph unicode="&#xe118;" d="M876.288 812.34c-85.812 85.76-193.484 117.146-227.788 82.842l-138.036-138.088c-20.94-20.94-39.22-91.034-30.822-161.946l-417.844-417.894c-24.78-24.73-4.71-84.992 44.852-134.554 49.562-49.612 109.876-69.632 134.604-44.902l417.844 417.844c70.964-8.396 141.056 9.882 161.946 30.822l138.086 138.086c34.304 34.304 2.918 141.978-82.842 227.79zM416.82 394.752c-19.098 19.046-12.852 56.166 13.772 82.842s63.744 32.87 82.842 13.824c18.996-19.046 12.852-56.166-13.824-82.842s-63.744-32.87-82.79-13.824zM762.42 698.42c-66.458 66.458-83.148 154.112-77.26 160.052 5.94 5.94 90.164-14.234 156.672-80.692 66.458-66.458 86.374-150.886 80.64-156.62s-93.646 10.802-160.052 77.26z" />
<glyph unicode="&#xe119;" d="M76.8 601.498h870.4c29.184 0 24.422 31.13 9.882 36.198-14.542 5.068-176.282 66.202-204.442 66.202h-46.080v153.6h-389.12v-153.6h-46.080c-28.16 0-189.9-61.132-204.442-66.202-14.54-5.068-19.354-36.198 9.882-36.198zM957.44 545.178h-890.88c-28.16 0-56.32-33.28-56.32-61.44v-179.2c0-28.16 28.16-61.44 56.32-61.44h101.478l-45.158-256h778.24l-45.158 256h101.478c28.16 0 56.32 33.28 56.32 61.44v179.2c0 28.16-28.16 61.44-56.32 61.44zM225.28 89.498l71.68 332.8h430.080l71.628-332.8h-573.388z" />
<glyph unicode="&#xe11a;" d="M750.080 524.134c-116.736 251.238-177.408 346.676-368.18 342.682-67.942-1.382-51.61 49.204-103.424 30.004-51.762-19.15-7.32-47.258-60.312-90.728-148.582-121.958-134.912-234.804-65.996-503.808 29.082-113.254-69.99-118.836-30.822-228.66 28.62-80.026 239.564-113.612 462.132-30.976 222.566 82.534 363.008 246.426 334.388 326.554-39.172 109.774-118.582 49.154-167.786 154.932zM559.308 110.284c-198.708-73.728-362.086-30.362-368.998-11.11-11.878 33.228 64.154 144.18 291.38 228.506s354.048 53.044 367.308 15.924c7.834-21.914-90.88-159.54-289.69-233.32zM495.462 289.178c-103.936-38.554-176.128-82.636-222.874-122.368 32.922-29.9 94.516-37.172 155.956-14.388 78.182 29.030 126.208 95.642 107.212 148.736-0.204 0.666-0.564 1.228-0.82 1.844-12.798-4.148-25.956-8.756-39.474-13.824z" />
<glyph unicode="&#xe11b;" d="M402.38 207.668l-41.472-41.164c-35.942-35.584-94.362-35.636-130.252 0-17.254 17.152-26.726 39.834-26.726 64.052s9.524 46.95 26.726 64.102l152.576 151.398c31.59 31.386 91.084 77.516 134.452 34.508 19.916-19.764 52.070-19.61 71.782 0.256 19.764 19.866 19.66 52.020-0.256 71.782-73.676 73.114-182.63 59.596-277.504-34.508l-152.576-151.398c-36.558-36.354-56.73-84.686-56.73-136.142 0-51.404 20.172-99.738 56.78-136.090 37.684-37.428 87.144-56.064 136.602-56.064s99.020 18.636 136.704 56.064l41.472 41.216c19.916 19.764 20.020 51.916 0.256 71.732-19.762 19.864-51.916 19.968-71.834 0.256zM864.82 795.7c-79.156 78.54-189.798 82.79-263.116 10.086l-51.66-51.252c-19.916-19.764-20.070-51.866-0.308-71.782 19.814-19.916 51.916-20.020 71.782-0.256l51.66 51.252c37.94 37.684 87.654 22.068 120.116-10.086 17.254-17.1 26.726-39.884 26.726-64.052 0-24.218-9.524-46.95-26.726-64.052l-162.816-161.484c-74.394-73.83-109.364-39.22-124.262-24.422-19.916 19.764-52.020 19.61-71.732-0.256-19.764-19.916-19.66-52.070 0.256-71.782 34.15-33.894 73.216-50.688 114.074-50.688 50.074 0 102.964 25.19 153.242 75.11l162.764 161.484c36.608 36.3 56.78 84.634 56.78 136.038s-20.172 99.79-56.78 136.142z" />
<glyph unicode="&#xe11c;" d="M946.484 720.384c-584.090-233.83-347.496 395.52-800.512 64.204l-94.772-33.996 187.7-737.792h103.372l-91.904 361.37c404.172 338.842 240.538-369.204 718.644 325.478 11.11 16.128-3.738 28.262-22.528 20.736z" />
<glyph unicode="&#xe11d;" d="M859.392 448c0 53.658 33.024 96 82.688 125.082-9.012 29.9-20.788 58.624-35.38 85.606-55.808-14.592-100.916 7.27-138.804 45.158-37.99 37.94-49.612 83.098-35.020 138.804-26.982 14.592-55.604 26.522-85.606 35.43-29.082-49.716-81.664-82.74-135.27-82.74s-106.138 33.024-135.27 82.74c-30.004-8.908-58.624-20.838-85.606-35.38 14.54-55.756 2.968-100.914-34.97-138.854-37.94-37.888-83.098-59.75-138.804-45.21-14.592-26.93-26.47-55.654-35.43-85.554 49.716-29.082 82.74-71.424 82.74-125.082 0-53.606-33.024-106.188-82.74-135.322 8.96-29.952 20.838-58.624 35.43-85.606 55.756 14.592 100.864 2.97 138.804-34.97s49.51-83.046 34.97-138.804c26.982-14.592 55.654-26.522 85.606-35.43 29.132 49.766 81.664 82.74 135.27 82.74s106.24-33.024 135.322-82.74c30.004 8.96 58.624 20.838 85.606 35.43-14.592 55.756-3.020 100.864 35.020 138.804 37.888 37.888 82.996 59.75 138.804 45.21 14.592 26.982 26.42 55.654 35.38 85.606-49.716 29.134-82.74 71.476-82.74 125.082zM512 260.966c-103.27 0-186.982 83.764-186.982 187.034s83.712 187.034 186.982 187.034c103.322 0 187.034-83.764 187.034-187.034s-83.712-187.034-187.034-187.034z" />
<glyph unicode="&#xe11e;" d="M160.46 607.232c47.822 37.12 87.45 11.572 140.34-49.664 5.99-6.86 13.978 1.178 18.484 5.12 4.506 3.994 74.342 66.764 77.722 69.684 3.43 3.020 7.526 8.652 2.098 14.95s-25.292 32-38.042 48.64c-92.57 121.088 253.236 203.212 200.090 204.492-26.982 0.716-135.476 1.946-151.654 0.256-65.69-6.962-148.174-68.352-189.696-96.922-54.272-37.324-74.598-58.982-77.926-62.004-15.36-13.466-2.458-44.39-30.31-68.812-29.442-25.804-47.77-6.296-64.82-21.248-8.5-7.476-32.102-25.14-38.912-31.13-6.758-5.938-7.988-16.024-1.076-24.114 0 0 64.666-71.476 70.144-77.772 5.428-6.298 20.020-11.624 29.082-3.636 9.062 7.936 32.308 28.364 36.25 31.846 3.994 3.43-2.56 44.186 18.226 60.314zM452.762 580.812c-6.144 7.116-13.722 7.27-20.326 1.434l-73.472-64.050c-5.734-5.12-6.502-14.54-1.332-20.48l424.652-483.226c9.882-11.468 27.084-12.646 38.502-2.714l49.716 41.574c11.316 9.932 12.492 27.34 2.612 38.758l-420.352 488.704zM1018.982 786.484c-3.788 25.292-16.896 19.968-23.706 9.216-6.708-10.7-36.916-56.372-49.306-77.004-12.288-20.582-42.496-60.98-99.020-21.094-58.778 41.574-38.298 70.604-28.108 90.112 10.292 19.61 41.882 74.496 46.49 81.408 4.506 6.912-0.82 26.982-18.996 18.586-18.278-8.448-129.178-52.532-144.588-115.712-15.718-64.358 13.21-121.804-43.52-178.892l-68.71-71.68 69.018-80.282 84.684 80.436c20.224 20.276 63.284 39.988 102.298 31.13 83.61-18.944 129.178 12.492 156.724 64.358 24.676 46.434 20.58 144.124 16.74 169.418zM140.288 86.988c-10.65-10.752-10.65-28.16 0-38.86l48.692-47.616c10.65-10.7 27.546-6.196 38.196 4.506l251.238 247.040-77.006 87.706-261.12-252.776z" />
<glyph unicode="&#xe11f;" d="M572.468 225.076c0 74.292 56.32 115.354 148.172 176.18 112.384 74.494 252.16 167.166 252.16 387.020 0 19.814-16.18 35.84-36.198 35.84h-175.668c-24.832 45.874-98.714 94.924-248.934 94.924-150.17 0-224.102-49.050-248.884-94.924h-175.666c-20.020 0-36.25-16.026-36.25-35.84 0-219.852 139.828-312.524 252.212-386.97 91.904-60.826 148.224-101.888 148.224-176.18v-67.124c-96.512-10.752-167.424-46.438-167.424-88.884 0-50.892 101.99-92.16 227.788-92.16 125.85 0 227.84 41.268 227.84 92.16 0 42.444-70.912 78.132-167.424 88.884v67.074zM714.598 483.84c29.082 61.44 52.070 144.742 55.756 268.596h128.46c-12.234-138.19-95.332-208.026-184.216-268.596zM512 856.268c139.878 0.052 194.56-57.14 194.508-78.336 0-21.35-54.528-78.49-194.508-78.592-139.878 0.154-194.458 57.242-194.458 78.592-0.050 21.198 54.58 78.44 194.458 78.336zM125.236 752.436h128.41c3.736-123.854 26.726-207.156 55.756-268.596-88.884 60.57-171.93 130.406-184.166 268.596z" />
<glyph unicode="&#xe120;" d="M987.7 939.212c-5.53 16.128-22.988 24.628-38.964 19.046s-24.372-23.244-18.79-39.424c47.104-136.704-46.388-238.796-117.606-293.428l-28.826 41.676c-9.626 13.926-31.334 25.548-48.128 25.804l-161.536-0.768c-16.794 0.256-41.78-7.526-55.604-17.254l-475.956-337.306c-23.040-16.332-28.724-48.486-12.544-71.834l216.372-312.678c16.128-23.348 42.086-20.532 65.126-4.25l475.956 337.356c13.824 9.728 29.542 30.924 35.124 47.002l50.586 161.076c5.478 16.076 2.15 40.652-7.476 54.58l-17.612 25.396c95.692 73.986 195.020 204.904 139.878 365.006zM766.26 460.186c-36.916-26.164-87.756-17.050-113.612 20.276-25.804 37.324-16.844 88.78 20.070 114.944 29.286 20.788 67.328 19.252 94.72-0.922-13.824-8.396-23.244-13.21-25.036-14.080-15.258-7.27-21.812-25.702-14.592-41.164 5.222-11.212 16.18-17.818 27.7-17.818 4.352 0 8.806 0.972 13.004 2.97 9.78 4.66 20.378 10.342 31.386 16.948 4.912-30.364-7.068-62.312-33.64-81.154z" />
<glyph unicode="&#xe121;" d="M512 550.4c-84.788 0-153.6-68.812-153.6-153.6 0-84.838 68.812-153.6 153.6-153.6 84.838 0 153.6 68.762 153.6 153.6 0 84.788-68.762 153.6-153.6 153.6zM921.6 704h-122.828c-16.896 0-35.124 13.108-40.448 29.132l-31.744 95.284c-5.428 16.076-23.604 29.184-40.5 29.184h-348.16c-16.896 0-35.124-13.108-40.396-29.132l-31.848-95.336c-5.324-16.024-23.5-29.132-40.396-29.132h-122.88c-56.32 0-102.4-46.080-102.4-102.4v-460.8c0-56.32 46.080-102.4 102.4-102.4h819.2c56.372 0 102.4 46.080 102.4 102.4v460.8c0 56.32-46.028 102.4-102.4 102.4zM512 140.8c-141.414 0-256 114.586-256 256 0 141.364 114.586 256 256 256 141.364 0 256-114.636 256-256 0-141.414-114.636-256-256-256zM885.76 530.022c-19.764 0-35.788 16.026-35.788 35.84s16.026 35.84 35.788 35.84c19.814 0 35.84-16.026 35.84-35.84s-16.026-35.84-35.84-35.84z" />
<glyph unicode="&#xe122;" d="M881.818 600.116c-81.050 188.672-211.558 332.34-277.556 305.46-112.076-45.568 66.816-264.396-483.636-488.14-47.564-19.302-59.596-96.666-39.68-142.9 19.866-46.234 84.89-92.262 132.454-72.96 8.192 3.328 38.452 13.056 38.452 13.056 33.946-45.568 69.478-18.534 82.124-47.514 15.156-34.816 48.076-110.438 59.238-136.14 11.264-25.702 36.66-49.562 55.092-42.548 18.33 7.014 80.948 30.874 104.908 39.936s29.696 30.464 22.374 47.308c-7.884 18.124-40.244 23.45-49.46 44.646-9.268 21.196-39.424 89.036-48.076 110.438-11.776 29.082 13.26 52.736 49.664 56.524 250.572 26.112 297.42-128.666 382.72-93.952 65.846 26.932 52.432 218.114-28.618 406.786zM853.606 294.092c-14.644-5.94-113.254 71.782-176.282 218.47-62.976 146.636-55.040 280.678-40.448 286.618 14.644 5.99 110.848-87.86 173.876-234.496 62.924-146.584 57.498-264.652 42.854-270.592z" />
<glyph unicode="&#xe123;" d="M628.224 331.776c-145.254-145.204-365.26-169.882-536.064-74.24 19.712-35.124 44.34-68.198 74.24-98.1 175.104-175.104 459.008-175.104 634.112 0 175.104 175.156 175.104 459.060 0 634.164-29.9 29.9-62.924 54.528-98.1 74.24 95.694-170.804 70.964-390.81-74.188-536.064z" />
<glyph unicode="&#xe124;" d="M888.422 726.272c-158.924 105.676-337.356 142.182-548.966 81.562-165.172-47.36-316.57-235.212-328.294-396.084-13.876-190.208 134.298-353.076 395.162-352.82 281.292 0.308 386.56 135.372 388.916 176.384 2.304 41.062-109.772 116.94-37.632 194.97 90.368 97.74 170.804 14.438 219.546 26.214 48.74 11.674 73.418 161.844-88.732 269.774zM562.074 249.19c-42.548 0-77.056 34.406-77.056 76.8 0 42.444 34.508 76.8 77.056 76.8s77.004-34.356 77.004-76.8c-0.050-42.394-34.458-76.8-77.004-76.8z" />
<glyph unicode="&#xe125;" d="M272.384 749.876c-195.686-113.562-184.422-298.496-177.664-366.9 252.774 299.366 630.836 284.826 630.836 284.826s-535.962-183.758-693.402-552.398c-12.39-29.184 58.368-67.020 74.496-32.614 48.18 102.502 115.354 179.404 115.354 179.404 99.124-36.916 270.49-80.076 392.038 5.376 161.332 113.612 144.844 365.364 375.244 487.936 53.812 28.674-451.584 148.328-716.902-5.63z" />
<glyph unicode="&#xe126;" d="M604.108 898.612h-82.124v-669.286c-45.414 17.51-104.192 17.766-162.15-3.328-103.834-37.786-165.734-129.74-138.24-205.312 27.546-75.622 134.042-106.24 237.876-68.454 88.218 32.102 145.92 103.27 144.486 170.24l0.154 547.328c143.206-22.528 152.986-203.622 135.834-254.412-6.554-19.252 4.966-33.638 26.624 0 154.366 240.28-162.46 346.212-162.46 483.224z" />
<glyph unicode="&#xe127;" d="M312.832 820.276v-607.59c-33.076 6.912-71.578 4.3-109.772-9.83-85.862-31.898-116.172-109.568-93.388-173.364 22.732-63.846 89.958-89.652 175.82-57.754 72.908 27.084 120.678 87.092 119.45 143.718 0 0 0 322.202 0 501.914l363.572 83.302v-385.536c-33.076 6.912-71.578 4.3-109.772-9.83-85.914-31.898-116.224-109.568-93.44-173.364 22.784-63.846 89.958-89.652 175.872-57.754 72.96 27.084 120.628 87.092 119.5 143.718l-0.002 720.078-547.84-117.708z" />
<glyph unicode="&#xe128;" d="M956.928 327.884l-88.422 78.848c-25.6 22.836-25.6 60.108 0 82.944l88.422 78.796c25.6 22.836 18.74 44.084-15.206 47.308l-117.196 11.11c-33.946 3.226-52.224 32.41-40.55 64.87l62.208 173.158c11.674 32.46-2.612 44.288-31.692 26.266l-138.292-85.504c-29.082-18.022-66.662-8.192-83.508 21.862l-50.124 89.396c-16.794 30.054-44.646 30.208-61.798 0.358l-46.542-80.996c-17.152-29.848-56.576-42.598-87.604-28.312l-81.92 37.632c-31.078 14.232-54.938-2.254-53.094-36.762l4.454-82.688c1.844-34.458-23.604-69.99-56.524-78.848l-79.104-21.248c-32.922-8.91-38.964-34.816-13.364-57.652l88.422-78.796c25.6-22.784 25.6-60.108 0-82.892l-88.422-78.746c-25.6-22.886-18.842-44.902 15.002-48.998l107.264-13.004c33.844-4.198 52.736-34.406 41.932-67.124l-55.040-166.81c-10.804-32.82 4.608-45.62 34.202-28.416l126.106 72.908c29.644 17.204 69.428 7.68 88.474-20.89l52.378-78.694c18.996-28.724 47.616-27.084 63.436 3.482l46.028 88.678c15.924 30.618 53.914 43.11 84.428 27.802l88.78-44.39c30.618-15.308 54.118 0.41 52.276 34.918l-4.454 82.688c-1.844 34.508 23.604 69.99 56.524 78.9l79.052 21.196c33.026 8.96 39.068 34.866 13.468 57.65zM563.2 233.216h-102.4v107.52h102.4v-107.52zM563.2 397.004h-102.4v266.24h102.4v-266.24z" />
<glyph unicode="&#xe129;" d="M169.062 333.414c23.756-96.308 53.964-138.292 154.726-182.374 100.814-44.032 148.686-92.16 188.212-92.16s84.326 42.086 185.14 86.22c100.812 43.98 73.932 57.498 97.69 153.702l-282.83-137.522-342.938 172.134zM998.964 584.396l-426.24 238.694c-33.382 18.688-88.012 18.688-121.396 0l-426.292-238.694c-33.382-18.688-33.382-49.306 0-67.994l426.24-238.694c33.382-18.688 88.012-18.688 121.396 0l275.558 154.316-298.804 69.99c-11.468-2.866-24.114-4.452-37.426-4.452-53.812 0-97.434 25.958-97.434 57.958s43.622 58.010 97.434 58.010c41.78 0 77.364-15.718 91.188-37.684l316.468-103.834 79.308 44.39c33.382 18.69 33.382 49.306 0 67.994zM868.71 131.994c-3.226-19.61 65.69-52.020 72.244 5.58 29.644 259.636-21.3 334.388-21.3 334.388l-71.424-39.988c0 0.052 60.57-57.6 20.48-299.98z" />
<glyph unicode="&#xe12a;" d="M852.378 696.678l-460.698 237.518c-63.13 33.228-187.546-30.976-223.284-87.502-15.922-25.292-14.796-43.52-14.796-53.862l5.684-536.32c0.358-11.418 14.746-26.726 26.982-34.304 25.548-15.668 412.672-257.28 423.578-264.14 5.888-3.686 12.902-5.376 19.764-5.376 5.836 0 11.724 1.28 17.050 3.942 11.672 5.734 18.942 16.794 18.942 28.928v563.25c0 11.724-6.86 22.528-18.022 28.416l-418.714 233.78c4.71 9.216 23.348 28.672 57.6 46.592 36.096 18.944 63.078 11.776 69.274 9.37 0 0 401.92-215.092 414.208-221.492 12.236-6.4 12.492-7.372 12.492-18.278 0-10.956 0-534.528 0-534.528 0-26.676 27.034-37.58 46.95-37.58 19.814 0 41.012 19.456 41.012 37.58v575.59c0 11.726-6.912 22.58-18.022 28.416z" />
<glyph unicode="&#xe12b;" d="M819.2 908.8h-614.4c-56.32 0-102.4-46.080-102.4-102.4v-716.8c0-56.32 46.080-102.4 102.4-102.4h614.4c56.372 0 102.4 46.080 102.4 102.4v716.8c0 56.32-46.028 102.4-102.4 102.4zM819.2 89.6h-614.4v716.8h614.4v-716.8zM563.2 345.6h-256v-51.2h256v51.2zM716.8 550.4h-204.8v-51.2h204.8v51.2zM512 601.6h204.8v102.4h-204.8v-102.4zM460.8 704h-153.6v-204.8h153.6v204.8zM409.6 448h-102.4v-51.2h102.4v51.2zM460.8 396.8h256v51.2h-256v-51.2zM716.8 243.2h-409.6v-51.2h409.6v51.2zM614.4 294.4h102.4v51.2h-102.4v-51.2z" />
<glyph unicode="&#xe12c;" d="M927.846 772.25c-15.156 13.108-97.588 75.52-112.998 88.78s-39.476 17.050-56.474 17.050h-492.748c-16.948 0-41.062-3.738-56.422-17.050-15.412-13.312-97.844-75.724-112.998-88.78s-27.802-32.82-23.758-60.98c4.044-28.16 99.174-664.218 99.174-664.218 5.326-16.024 23.552-29.132 40.55-29.132h599.706c16.998 0 35.226 13.158 40.55 29.132 0 0 95.078 636.058 99.174 664.218 3.994 28.16-8.6 47.872-23.756 60.98zM512 326.758c-166.298 0-201.882 235.366-209.254 283.852l94.054 0.002c14.182-70.758 46.388-191.692 115.2-191.692s101.068 120.934 115.252 191.692h94.004c-7.374-48.488-42.958-283.854-209.256-283.854zM151.706 704l112.948 117.76h494.694l112.946-117.76h-720.588z" />
<glyph unicode="&#xe12d;" d="M273.92-57.856h102.4l229.786 409.652h264.294c0 0 153.6 0 153.6 71.628 0 71.68-153.6 71.68-153.6 71.68h-264.294l-229.786 409.6h-102.4l127.386-409.6h-183.654l-115.252 102.452h-102.4l81.972-174.080-81.972-174.132h102.4l115.252 102.452h183.654l-127.386-409.652z" />
<glyph unicode="&#xe12e;" d="M505.702 918.988c-260.096-3.482-468.172-217.14-464.692-477.286 3.482-260.198 217.19-468.172 477.286-464.742 260.148 3.482 468.224 217.19 464.692 477.286-3.48 260.198-217.19 468.224-477.286 464.742zM506.572 857.6c70.144 0.972 136.396-15.872 194.56-46.132l-63.386-105.676c-37.99 18.484-80.638 28.928-125.746 28.928-45.056 0-87.706-10.444-125.696-28.98l-63.334 105.626c54.988 28.672 117.35 45.312 183.602 46.234zM254.26 322.304l-105.574-63.284c-28.672 54.938-45.312 117.3-46.182 183.5-0.972 70.196 15.872 136.448 46.132 194.56l105.626-63.436c-18.538-37.938-28.982-80.536-28.982-125.644 0-45.056 10.444-87.706 28.98-125.696zM517.478 38.452c-70.144-0.972-136.448 15.872-194.56 46.132l63.386 105.676c37.99-18.536 80.64-28.98 125.696-28.98 45.108 0 87.756 10.394 125.696 28.928l63.334-105.574c-54.988-28.622-117.298-45.262-183.552-46.182zM512 222.772c-124.416 0-225.228 100.864-225.228 225.228 0 124.416 100.864 225.28 225.228 225.28 124.468 0 225.28-100.864 225.28-225.28s-100.812-225.228-225.28-225.228zM769.74 322.304c18.534 37.99 28.98 80.64 28.98 125.696 0 45.108-10.444 87.706-28.98 125.696l105.574 63.386c28.672-54.988 45.364-117.3 46.234-183.552 0.922-70.196-15.924-136.448-46.182-194.56l-105.626 63.334z" />
<glyph unicode="&#xe12f;" d="M512 734.72c-335.924 0-512-247.45-512-286.72s176.076-286.72 512-286.72 512 247.45 512 286.72-176.076 286.72-512 286.72zM512 227.43c-125.644 0-227.532 98.764-227.532 220.57s101.888 220.57 227.532 220.57c125.696 0 227.584-98.764 227.584-220.57s-101.888-220.57-227.584-220.57zM512 448c-20.788 22.836 33.996 110.234 0 110.234-62.822 0-113.766-49.356-113.766-110.234s50.944-110.284 113.766-110.284c62.874 0 113.818 49.408 113.818 110.284 0 27.956-96.052-19.456-113.818 0z" />
<glyph unicode="&#xe130;" d="M512 919.040c-260.148 0-471.040-210.944-471.040-471.040 0-260.148 210.892-471.040 471.040-471.040s471.040 210.892 471.040 471.040c0 260.148-210.892 471.040-471.040 471.040zM512 79.36c-203.622 0-368.64 165.068-368.64 368.64s165.018 368.64 368.64 368.64 368.64-165.068 368.64-368.64-165.018-368.64-368.64-368.64zM547.84 714.24h-71.68v-281.088l174.336-174.336 50.688 50.688-153.344 153.344z" />
<glyph unicode="&#xe131;" d="M819.2 589.158h-30.72c-11.316 0-20.48-9.216-20.48-20.48v-141.158c0-68.454-53.914-184.32-256-184.32s-256 115.866-256 184.32v141.158c0 11.264-9.268 20.48-20.48 20.48h-30.72c-11.264 0-20.48-9.216-20.48-20.48v-141.158c0-114.534 84.172-237.056 276.48-253.952v-135.168h-133.172c-11.212 0-20.428-9.216-20.428-20.48v-61.44c0-11.264 9.216-20.48 20.428-20.48h368.64c11.316 0 20.48 9.216 20.48 20.48v61.44c0 11.316-9.216 20.48-20.48 20.48h-133.068v135.168c192.358 16.896 276.48 139.468 276.48 253.952v141.158c0 11.264-9.216 20.48-20.48 20.48zM512 345.6c120.166 0 153.6 49.356 153.6 81.92v161.638h-307.2v-161.638c0-32.564 33.434-81.92 153.6-81.92zM665.6 878.080c0 32.614-33.434 81.92-153.6 81.92s-153.6-49.306-153.6-81.92v-217.242h307.2v217.242z" />
<glyph unicode="&#xe132;" d="M870.4 806.4h-46.080v-102.4h-163.84v102.4h-296.96v-102.4h-163.84v102.4h-46.080c-56.32 0-102.4-46.080-102.4-102.4v-614.4c0-56.32 46.080-102.4 102.4-102.4h716.8c56.32 0 102.4 46.080 102.4 102.4v614.4c0 56.32-46.080 102.4-102.4 102.4zM870.4 89.6h-716.8v409.6h716.8v-409.6zM317.44 908.8h-71.68v-174.080h71.68v174.080zM778.24 908.8h-71.68v-174.080h71.68v174.080z" />
<glyph unicode="&#xe133;" d="M348.314-12.748c-9.882 6.502 161.484 366.592 155.546 382.412-5.888 15.82-187.596 73.574-196.506 101.376-8.858 27.802 358.81 445.748 368.436 437.658 9.626-8.038-160.204-370.586-155.546-382.362s190.924-71.988 196.506-101.324c5.58-29.44-358.554-444.212-368.436-437.76z" />
<glyph unicode="&#xe134;" d="M778.906 568.884c-14.080 0-27.956-1.228-41.42-3.482-33.588 109.824-137.626 189.85-260.916 189.85-150.426 0-272.332-119.194-272.332-266.24 0-13.108 1.024-26.010 2.918-38.656-7.22 0.818-14.49 1.382-21.966 1.382-102.246 0-185.19-81.102-185.19-181.044 0-99.994 82.944-181.044 185.19-181.044h593.716c135.424 0 245.094 107.316 245.094 239.616 0 132.302-109.722 239.618-245.094 239.618zM582.246 348.16c-25.344-36.044-133.888-147.916-138.496-152.628-5.324-6.554-20.020-17.562-33.946-8.5-3.994 2.612-8.806 7.834-8.806 18.124 0 9.882 4.506 19.968 5.068 21.094l52.89 117.044c-9.932 3.942-26.982 10.854-40.244 16.64l-3.532 1.538c-13.414 5.632-30.106 12.748-30.106 31.13 0 8.756 4.198 18.996 12.748 31.18 25.344 36.044 133.888 147.866 138.496 152.628 5.324 6.554 19.968 17.562 33.946 8.55 3.994-2.612 8.806-7.834 8.806-18.124 0-9.882-4.506-19.968-5.068-21.094l-52.89-117.044c9.932-3.994 26.982-10.906 40.244-16.64l3.482-1.484c13.414-5.684 30.106-12.8 30.106-31.18 0.052-8.86-4.148-19.048-12.698-31.234z" />
<glyph unicode="&#xe135;" d="M522.394 931.276c-1.332 10.956-19.456 10.956-20.788 0-45.21-363.928-276.326-438.936-276.326-691.864 0-156.212 131.226-282.88 286.72-282.88s286.72 126.72 286.72 282.88c0 252.928-231.116 327.936-276.326 691.864zM478.772 528.998c-3.072-11.212-6.298-22.784-9.626-34.662-20.532-72.908-43.828-155.596-43.828-251.188 0-51.814-30.618-70.196-59.238-70.196-32.666 0-59.188 26.676-59.188 59.7 0 112.998 54.426 186.778 102.452 251.904 15.052 20.378 29.236 39.628 40.806 58.88 5.274 8.756 19.508 8.396 25.958-0.308 2.92-4.196 3.944-9.316 2.664-14.13z" />
<glyph unicode="&#xe136;" d="M512 919.040c-260.148 0-471.040-210.892-471.040-471.040s210.892-471.040 471.040-471.040 471.040 210.892 471.040 471.040-210.892 471.040-471.040 471.040zM512 294.4c-84.838 0-153.6 68.812-153.6 153.6 0 84.838 68.762 153.6 153.6 153.6 84.788 0 153.6-68.812 153.6-153.6s-68.812-153.6-153.6-153.6z" />
<glyph unicode="&#xe137;" d="M465.92 396.698h92.16v-102.4h465.92c0 0-7.578 228.25-10.24 299.724-2.508 67.892-26.778 109.876-102.4 109.876h-164.25c-25.446 47.974-52.838 99.584-61.236 115.456-16.948 31.948-22.732 38.144-60.416 38.144h-226.918c-37.684 0-43.468-6.196-60.416-38.144-8.396-15.872-35.788-67.482-61.234-115.456h-164.25c-75.622 0-99.584-41.984-102.4-109.876s-10.24-299.724-10.24-299.724h465.92v102.4zM391.68 759.45c11.724 22.118 15.77 26.42 41.78 26.42h157.030c26.112 0 30.106-4.3 41.78-26.42 4.404-8.294 16.282-30.72 29.492-55.5l-299.522-0.002c13.158 24.73 25.036 47.156 29.44 55.502zM558.080 140.698h-92.16v102.4h-440.32c0 0 6.4-92.058 10.24-170.086 1.588-32.41 11.11-85.914 92.108-85.914h768.102c80.998 0 90.316 53.556 92.108 85.914 4.454 80.23 10.24 170.086 10.24 170.086h-440.32l0.002-102.4z" />
<glyph unicode="&#xe138;" d="M135.372 634.522c89.446 76.8 160.154 137.574 351.846 29.184 92.108-52.070 166.4-71.628 228.25-71.628 108.288 0 178.432 60.262 239.104 112.332 21.658 18.586 24.474 51.61 6.246 73.676s-50.484 24.934-72.14 6.348c-89.446-76.852-160.102-137.574-351.898-29.184-253.336 143.106-372.018 41.166-467.352-40.754-21.608-18.586-24.424-51.558-6.248-73.626s50.536-24.986 72.192-6.348zM888.628 522.956c-89.446-76.8-160.102-137.574-351.898-29.184-253.286 143.104-371.968 41.166-467.302-40.704-21.658-18.586-24.474-51.61-6.246-73.676s50.484-24.934 72.14-6.348c89.446 76.852 160.154 137.574 351.846 29.236 92.108-52.070 166.4-71.68 228.25-71.68 108.288 0 178.432 60.262 239.104 112.384 21.658 18.586 24.474 51.558 6.246 73.626-18.176 22.116-50.484 24.932-72.14 6.346zM888.628 261.478c-89.446-76.8-160.102-137.574-351.898-29.184-253.286 143.104-372.020 41.216-467.302-40.704-21.658-18.586-24.474-51.61-6.246-73.676s50.484-24.934 72.14-6.348c89.498 76.85 160.154 137.522 351.898 29.234 92.108-52.070 166.4-71.68 228.25-71.68 108.288 0 178.432 60.262 239.104 112.384 21.658 18.534 24.474 51.558 6.246 73.626s-50.536 24.986-72.192 6.348z" />
<glyph unicode="&#xe139;" d="M798.72 725.606c0 109.568 0 120.268 0 120.268 0 40.45-128.358 114.126-286.72 114.126s-286.72-73.676-286.72-114.124c0 0 0-10.7 0-120.268s198.502-200.038 198.502-277.606c0-77.62-198.502-168.038-198.502-277.658 0-109.568 0-120.268 0-120.268 0-40.4 128.358-114.076 286.72-114.076s286.72 73.676 286.72 114.124c0 0 0 10.7 0 120.268 0 109.62-198.452 200.038-198.452 277.658 0 77.518 198.452 168.040 198.452 277.556zM304.128 840.756c35.636 22.476 102.452 55.45 210.636 55.45 108.236 0 205.108-55.45 205.108-55.45 7.27-4.404 35.738-19.66 16.23-31.18-42.956-25.446-126.924-52.224-224.154-52.224s-178.328 29.54-221.286 54.988c-19.506 11.57 13.466 28.416 13.466 28.416zM537.652 448c0-61.082 50.996-100.404 105.062-152.884 39.476-38.348 93.44-90.828 93.44-124.774v-67.994c-49.612 24.73-198.196 48.948-198.196 128.204 0 40.14-51.916 40.14-51.916 0 0-79.258-148.582-103.476-198.196-128.204v67.994c0 33.894 54.016 86.426 93.492 124.774 54.016 52.48 105.010 91.802 105.010 152.884s-50.996 100.404-105.012 152.884c-39.474 38.348-93.49 90.88-93.49 124.722l-2.406 51.2c52.532-28.262 135.834-55.244 226.56-55.244s174.438 26.982 226.97 55.244l-2.816-51.2c0-33.844-54.016-86.374-93.44-124.724-54.068-52.478-105.062-91.8-105.062-152.882z" />
<glyph unicode="&#xe13a;" d="M416.154 253.338c-35.328-61.236-11.572-111.616 37.428-139.878s104.55-23.756 139.878 37.478c35.328 61.184 258.406 607.54 239.002 618.752-19.354 11.212-380.98-455.118-416.308-516.352zM512 642.458c22.426 0 44.288-1.946 65.588-5.53 22.426 28.058 47.564 58.982 71.988 88.422-43.624 12.646-89.652 19.508-137.576 19.508-287.078 0-512-242.074-512-551.116 0-19.046 0.87-38.042 2.508-56.576 2.508-28.16 27.648-48.896 55.552-46.438 28.16 2.56 48.948 27.392 46.438 55.552-1.382 15.512-2.098 31.486-2.098 47.46 0 251.598 179.968 448.718 409.6 448.718zM881.612 578.508c-14.284-38.4-29.388-77.516-42.7-111.36 52.070-75.264 82.688-169.624 82.688-273.408 0-16.23-0.716-32.564-2.15-48.384-2.56-28.16 18.176-53.044 46.336-55.654 1.588-0.154 3.124-0.204 4.71-0.204 26.164 0 48.486 20.020 50.892 46.54 1.742 18.944 2.612 38.35 2.612 57.702 0 151.092-53.862 286.158-142.388 384.768z" />
<glyph unicode="&#xe13b;" d="M1011.354 402.892c-31.948 87.45-121.19 139.622-238.694 139.622-4.556 0-9.012-0.154-13.414-0.358l-0.768 105.574c0 0 174.54 30.156 180.428 31.18s6.86 6.092 5.632 11.776c-1.178 5.684-8.55 45.26-9.626 50.022-1.434 6.656-5.274 6.502-10.598 5.58s-166.452-23.654-166.452-23.654-0.564 100.044-0.614 106.444c-0.052 6.4-3.584 8.14-9.932 8.038-6.4-0.102-47.156-0.716-52.532-0.82-5.376-0.052-8.346-2.508-8.244-7.628s1.69-118.068 1.69-118.068-156.774-27.084-161.076-27.802-8.704-2.764-7.68-7.322c0.972-4.556 9.728-55.962 10.65-60.006 0.87-4.044 3.636-6.502 9.574-5.478s149.76 25.856 149.76 25.856l1.792-103.322c-55.142-14.49-92.212-42.188-115.508-66.714-39.322-41.318-61.798-96.614-61.798-151.706 0-81.306 49.664-129.484 119.142-137.984 161.946-19.814 262.092 156.62 295.424 241.356 56.218-77.056 13.158-222.924-107.212-306.124-2.15-1.588-4.966-6.604-1.638-10.598s27.648-33.894 31.692-38.81c4.044-4.812 10.548-2.918 13.108-1.076 128.512 88.43 187.392 231.022 146.894 342.022zM633.14 239.718c-49.408 6.196-48.282 46.796-48.282 74.394 0 39.578 16.742 80.896 44.8 110.388 17.204 18.074 38.4 31.796 62.924 40.908l4.198-218.982c-19.608-6.708-40.806-9.524-63.64-6.708zM757.452 267.98l2.304 210.38c4.3 0.204 8.55 0.512 12.902 0.512 39.578 0 76.544-7.424 96.564-18.534s-52.378-138.854-111.77-192.358zM299.162 660.582c-1.536 4.814-5.222 7.374-9.984 7.374h-99.84c-4.71 0-8.448-2.56-9.932-7.372-21.044-66.51-178.228-562.792-178.996-565.3-0.87-2.714-0.564-3.892 3.174-3.892h88.73c3.84 0 5.068 1.178 5.786 3.686 0.82 2.612 51.66 169.882 51.66 169.882h178.996c0 0 50.842-167.322 51.61-169.882 0.82-2.508 1.946-3.686 5.836-3.686h88.678c3.788 0 4.096 1.178 3.174 3.892-0.666 2.508-157.798 498.79-178.892 565.298zM165.222 337.1l74.086 268.8 74.036-268.8h-148.122z" />
<glyph unicode="&#xe13c;" d="M269.978 606.004c10.292 0 20.224-1.536 29.542-4.454 35.328 39.576 74.496 75.622 116.89 107.57-1.742 7.424-2.816 15.206-2.816 23.244 0 11.162 1.844 21.812 5.222 31.744-47.462 34.1-99.174 62.67-154.060 84.788-51.56-31.846-96.462-73.37-132.25-122.010 26.572-47.052 58.214-90.932 94.106-130.918 13.158 6.4 27.852 10.036 43.366 10.036zM169.78 505.804c0 14.028 2.918 27.444 8.14 39.578-32.102 35.328-61.286 73.422-86.836 114.074-32-63.59-50.124-135.424-50.124-211.456 0-88.116 24.268-170.496 66.356-240.998 15.002 84.736 43.572 164.864 82.944 238.284-12.8 16.794-20.48 37.734-20.48 60.518zM513.792 832.614c26.522 0 50.484-10.342 68.404-27.084 52.276 22.476 107.366 39.732 164.66 50.74-69.172 39.832-149.3 62.77-234.856 62.77-58.316 0-114.124-10.7-165.632-30.106 40.908-20.224 79.924-43.724 116.532-70.348 14.95 8.858 32.306 14.028 50.892 14.028zM663.706 360.55c6.246 13.004 15.104 24.474 26.060 33.588-29.594 91.034-76.442 174.284-136.806 245.964-12.032-5.12-25.242-7.936-39.168-7.936-21.708 0-41.78 7.014-58.214 18.74-36.352-27.596-69.94-58.572-100.506-92.364 9.524-15.31 15.104-33.332 15.104-52.738 0-10.496-1.588-20.532-4.556-30.054 87.91-58.726 189.080-99.020 298.086-115.2zM793.702 225.228c1.332-18.944 2.1-38.092 2.1-57.396 0-34.048-2.202-67.482-6.298-100.404 79.924 58.368 140.698 141.158 171.418 237.516-36.352-8.806-73.626-15.104-111.668-18.74-8.96-27.388-29.338-49.608-55.552-60.976zM640.204 293.222c-116.276 19.252-224.102 63.59-317.9 127.18-15.258-9.37-33.076-14.848-52.276-14.848-7.066 0-13.876 0.768-20.532 2.15-44.902-85.196-73.626-180.224-81.92-280.884 44.852-48.076 99.584-86.784 161.076-112.794 76.288 117.302 182.99 214.428 311.552 279.196zM828.212 797.082c-75.468-7.27-147.558-26.214-214.682-54.682 0.41-3.276 0.564-6.656 0.564-10.036 0-15.82-3.738-30.72-10.292-43.98 67.072-78.746 119.142-170.496 152.064-270.9 40.704-0.768 75.572-25.702 90.572-61.184 45.364 4.608 89.498 13.312 132.044 25.804 2.92 21.506 4.558 43.47 4.558 65.896 0 138.444-59.75 262.964-154.828 349.082zM690.636 239.668c-120.064-56.218-220.364-142.796-293.068-248.628 36.608-9.164 74.956-14.080 114.432-14.080 71.116 0 138.394 15.82 198.81 43.98 9.676 47.462 14.848 96.564 14.848 146.892 0 18.124-0.87 36.148-2.202 54.016-12.084 3.842-23.194 9.934-32.82 17.82z" />
<glyph unicode="&#xe13d;" d="M905.728 718.028c-25.702 152.474-164.864 254.31-310.732 227.38-145.92-26.88-269.004-144.18-243.302-296.652 5.58-32.82 20.888-84.224 39.064-121.088l-264.96-395.418c-9.78-14.592-15.308-40.908-12.39-58.42l17.050-100.916c2.97-17.51 19.098-29.286 35.84-26.214l77.62 14.284c16.794 3.124 38.042 17.868 47.308 32.82l104.806 169.472 0.922 1.076 70.912 13.108 122.316 198.554c40.244-7.116 97.894-4.71 131.994 1.588 145.972 26.93 209.306 187.954 183.552 340.426zM776.5 639.898c-40.14-59.852-81.050-17.664-138.394 24.32-57.292 41.932-109.312 67.738-69.172 127.59 40.14 59.904 119.092 74.496 176.436 32.512 57.344-41.932 71.27-124.57 31.13-184.422z" />
<glyph unicode="&#xe13e;" d="M788.89 448c0 141.62 65.382 221.184 116.582 221.184 18.636 0 67.276 0 67.276 0-34.15 54.22-62.412 86.016-187.186 86.016h-512.41c-191.18 0-273.152-176.18-273.152-307.2s81.972-307.2 273.152-307.2h512.41c124.826 0 153.036 31.796 187.238 86.068 0 0-16.076 0-67.276 0s-116.634 79.564-116.634 221.132zM649.626 356.148c-8.346-12.902-34.56-0.82-34.56-0.82l-151.398 68.404c0 0-13.516-34.252-23.962-58.368s-18.484-51.456-61.9-20.89c-43.468 30.566-183.296 166.4-183.296 166.4s-17.716 14.49-8.858 28.16c8.344 12.902 34.56 0.818 34.56 0.818l151.398-68.404c0 0 13.516 34.202 23.962 58.368 10.444 24.066 18.482 51.458 61.9 20.892 43.468-30.566 183.348-166.452 183.348-166.452s17.612-14.438 8.806-28.108zM966.4 554.138h-38.298c-28.672 0-56.628-38.656-56.628-101.376s28.006-101.324 56.628-101.324h38.298c28.62 0 57.6 38.604 57.6 101.324s-28.98 101.376-57.6 101.376z" />
<glyph unicode="&#xe13f;" d="M580.148 888.32v0c-251.29 0-409.498-86.58-398.9-156.16 3.072-19.866 11.52-73.984 22.22-142.080-123.136-47.82-163.942-125.286-158.464-188.518 6.452-74.804 73.78-154.88 221.594-168.756 84.378-7.834 185.908 38.4 251.75 117.504-6.298 10.65-9.882 22.938-9.882 36.198 0 39.578 32.052 71.68 71.628 71.68s71.68-32.102 71.68-71.68c0-39.014-31.232-70.708-70.042-71.578-78.336-101.018-197.58-161.946-310.528-154.828 2.612-16.64 3.636-22.938 4.916-31.386 4.66-29.594 120.166-120.832 303.974-120.986h0.052c183.808 0.154 299.366 91.392 303.974 120.986 4.558 29.44 84.072 532.788 94.824 603.444 10.65 69.53-147.61 156.16-398.796 156.16zM116.428 407.808c-2.816 32.87 23.296 76.646 98.458 109.516 10.804-68.66 22.58-143.206 32.922-208.64-82.124 16.128-127.898 58.932-131.38 99.124zM580.096 625.972c-183.808 0.102-314.214 68.352-314.214 93.798-0.102 25.344 130.406 93.696 314.214 93.594 183.808 0.102 314.368-68.25 314.266-93.594 0-25.446-130.406-93.696-314.266-93.798z" />
<glyph unicode="&#xe140;" d="M622.796 45.62c-1.434-15.872 11.11-29.9 27.956-31.284l204.032-16.742c16.794-1.382 31.796 10.394 33.228 26.266l15.974 168.244-265.268 21.862-15.922-168.346zM120.012 192.052l15.924-168.244c1.484-15.872 16.486-27.648 33.28-26.266l204.032 16.742c16.794 1.382 29.388 15.462 27.904 31.284l-15.974 168.294-265.166-21.81zM93.748 469.35l16.436-173.568 265.268 21.812-16.488 173.414c-0.36 4.148-0.564 8.5-0.564 12.748 0 79.668 68.916 144.436 153.6 144.436s153.6-64.82 153.6-144.436c0-4.25-0.204-8.55-0.614-12.748l-16.384-173.414 265.216-21.812 16.436 173.568c1.022 11.47 1.586 22.99 1.586 34.406 0 217.704-188.364 394.804-419.84 394.804s-419.84-177.1-419.84-394.804c0-11.416 0.564-22.936 1.588-34.406z" />
<glyph unicode="&#xe141;" d="M956.62 376.422l-161.178 383.59c-12.698 25.6-46.49 46.54-75.11 46.54l-416.614 0.002c-28.62 0-62.412-20.94-75.162-46.54l-161.126-383.59c-12.8-25.6-19.404-69.632-14.694-97.894l34.816-188.724c4.71-28.212 31.898-51.302 60.468-51.302h728.064c28.62 0 55.808 23.092 60.518 51.302l34.816 188.724c4.556 28.21-1.998 72.292-14.798 97.892zM886.784 241.972l-13.21-76.902c-3.994-29.542-30.618-53.708-59.084-53.708l-604.98-0.002c-28.518 0-55.092 24.166-59.084 53.708l-13.26 76.902c-3.942 29.542 16.128 53.708 44.698 53.708h660.276c28.568-0.050 48.638-24.164 44.644-53.706z" />
<glyph unicode="&#xe142;" d="M512 867.84c-219.084 0-355.226-72.192-347.852-130.764l73.83-607.59c2.918-23.656 113.714-101.172 274.022-101.326 160.358 0.154 271.104 77.722 274.074 101.324l73.78 607.59c7.372 58.574-128.718 130.766-347.854 130.766zM512 648.14c-160.308 0.154-274.074 57.242-274.074 78.592-0.050 21.198 113.766 78.44 274.074 78.336 160.308 0.052 274.124-57.14 274.074-78.336 0-21.35-113.716-78.438-274.074-78.592z" />
<glyph unicode="&#xe143;" d="M627.866 316.518c0 0 361.42 260.762 321.332 559.258-0.922 6.554-3.072 10.854-5.734 13.772-2.816 2.714-7.014 4.966-13.466 5.888-291.688 40.91-546.51-328.908-546.51-328.908-221.082 26.522-205.004-17.612-305.868-259.84-19.302-46.182 11.98-62.106 46.284-49.1 34.304 12.902 110.028 41.524 110.028 41.524l132.556-135.628c0 0-27.956-77.466-40.602-112.538-12.646-35.174 2.868-67.174 48.026-47.462 236.75 103.268 279.86 86.832 253.954 313.034zM679.476 619.418c-30.618 31.334-30.618 82.124 0 113.46 30.618 31.284 80.23 31.284 110.848 0 30.668-31.284 30.668-82.124 0-113.46-30.568-31.386-80.232-31.386-110.848 0z" />
<glyph unicode="&#xe144;" d="M141.466 265.626c-77.516-76.186-12.032-154.42-115.046-270.388-46.49-52.326 191.386-36.352 309.248 79.514 49.972 49.1 35.892 120.73-17.716 173.466-53.606 52.684-126.516 66.508-176.486 17.408zM1000.5 926.31c-39.782 39.066-480.204-313.856-611.328-442.726-65.076-63.948-86.784-98.252-106.752-123.904-8.652-11.162 2.816-14.592 7.936-17.254 25.754-13.108 43.776-25.292 67.124-48.23 23.348-22.886 35.788-40.602 49.1-65.946 2.662-5.068 6.196-16.332 17.51-7.782 26.112 19.61 60.98 40.96 126.004 104.908 131.122 128.87 490.086 561.818 450.406 600.934z" />
<glyph unicode="&#xe145;" d="M921.6 755.2h-51.2v-768h51.2c56.32 0 102.4 46.080 102.4 102.4v563.2c0 56.32-46.080 102.4-102.4 102.4zM0 652.8v-563.2c0-56.32 46.080-102.4 102.4-102.4h51.2v768h-51.2c-56.32 0-102.4-46.080-102.4-102.4zM686.080 862.362c-34.868 16.23-90.522 46.438-174.080 46.438s-139.212-30.208-174.080-46.438v-107.162h-112.64v-768h573.44v768h-112.64v107.162zM624.64 755.2h-225.28v68.352c27.29 11.776 66.458 23.808 112.64 23.808s85.3-11.98 112.64-23.756v-68.404z" />
<glyph unicode="&#xe146;" d="M512 341.556c122.368 0 224.82 41.574 231.014 95.898-18.176 51.046-38.042 106.7-57.548 161.434-13.516-39.014-88.32-66.56-173.466-66.56s-159.898 27.492-173.516 66.508c-19.508-54.734-39.272-110.336-57.498-161.434 6.194-54.272 108.594-95.846 231.014-95.846zM512 684.852c57.498 0 110.95 17.818 126.618 45.466-21.556 60.57-40.090 112.486-51.814 145.254-7.732 21.862-43.008 33.228-74.804 33.228s-67.072-11.366-74.804-33.178c-11.724-32.768-30.208-84.736-51.814-145.254 15.668-27.7 69.12-45.516 126.618-45.516zM961.536 291.020l-192.256 77.466 22.17-61.798c-1.126-65.434-128.256-117.658-279.45-117.658s-278.324 52.224-279.398 117.658l22.118 61.798-192.256-77.466c-53.914-21.76-56.166-61.952-5.068-89.344l361.574-193.894c51.148-27.392 134.86-27.392 186.010 0l361.574 193.894c51.2 27.392 48.896 67.584-5.018 89.344z" />
<glyph unicode="&#xe147;" d="M512 939.572c-271.052 0-491.52-220.57-491.52-491.572 0-271.052 220.468-491.572 491.52-491.572s491.52 220.518 491.52 491.572c0 271.002-220.468 491.572-491.52 491.572zM931.226 448c0-95.898-32.564-184.372-86.836-255.028-15.36 12.032-31.642 44.442-16.282 78.028 15.462 33.792 19.508 112.026 15.974 142.438-3.38 30.412-19.2 103.732-62.208 104.448-42.854 0.666-72.294 14.796-97.792 65.69-52.89 105.83 99.276 126.208 46.388 184.832-14.796 16.436-91.29-67.788-102.502 44.442-0.768 8.040 6.912 20.072 17.152 32.514 166.092-55.808 286.106-212.788 286.106-397.364zM454.4 863.028c-9.984-19.456-36.454-27.444-52.582-42.138-34.97-31.642-50.022-27.29-68.916-57.702-18.944-30.412-80.18-74.188-80.18-96.204 0-21.964 30.924-47.974 46.388-42.906 15.462 5.12 56.218 4.812 80.18-3.584 24.012-8.5 200.448-16.948 144.18-166.092-17.818-47.412-95.846-39.424-116.634-117.964-3.124-11.52-13.876-60.724-14.644-76.8-1.228-24.884 17.612-118.682-6.4-118.682-24.116 0-88.934 83.916-88.934 99.124s-16.844 68.556-16.844 114.176-77.67 44.902-77.67 105.574c0 54.784 42.138 82.022 32.666 108.186-9.318 26.112-83.302 27.034-114.124 30.208 53.86 139.876 180.682 243.708 333.514 264.804zM380.16 50.176c25.19 13.26 27.75 30.464 50.586 31.386 26.112 1.126 47.36 10.188 76.748 16.64 26.164 5.684 72.858 32.204 114.074 35.584 34.662 2.868 103.168-1.792 121.6-35.276-66.356-44.032-145.818-69.734-231.168-69.734-46.080-0.002-90.368 7.576-131.84 21.4z" />
<glyph unicode="&#xe148;" d="M952.32 755.2h-880.64c-39.424 0-71.68-32.256-71.68-71.68v-471.092c0-39.372 32.256-71.628 71.68-71.628h880.64c39.476 0 71.68 32.256 71.68 71.628v471.092c0 39.424-32.256 71.68-71.68 71.68zM563.2 652.8h102.4v-102.4h-102.4v102.4zM716.8 499.2v-102.4h-102.4v102.4h102.4zM409.6 652.8h102.4v-102.4h-102.4v102.4zM563.2 499.2v-102.4h-102.4v102.4h102.4zM256 652.8h102.4v-102.4h-102.4v102.4zM409.6 499.2v-102.4h-102.4v102.4h102.4zM102.4 652.8h102.4v-102.4h-102.4v102.4zM256 499.2v-102.4h-102.4v102.4h102.4zM204.8 243.2h-102.4v102.4h102.4v-102.4zM768 243.2h-512v102.4h512v-102.4zM921.6 243.2h-102.4v102.4h102.4v-102.4zM768 396.8v102.4h102.4v-102.4h-102.4zM921.6 550.4h-204.8v102.4h204.8v-102.4z" />
<glyph unicode="&#xe149;" d="M921.6 857.6h-819.2c-56.32 0-102.4-46.080-102.4-102.4v-614.4c0-56.372 46.080-102.4 102.4-102.4h819.2c56.32 0 102.4 46.028 102.4 102.4v614.4c0 56.32-46.080 102.4-102.4 102.4zM235.52 761.856c21.248 0 38.4-16.692 38.4-37.324 0-20.684-17.152-37.376-38.4-37.376s-38.4 16.69-38.4 37.324c0 20.684 17.204 37.376 38.4 37.376zM94.72 724.48c0 20.634 17.152 37.324 38.4 37.324s38.4-16.64 38.4-37.324c0-20.684-17.152-37.376-38.4-37.376s-38.4 16.742-38.4 37.376zM922.624 140.8h-821.248v471.040h821.248v-471.040zM922.624 693.76h-615.424v61.44h615.424v-61.44z" />
<glyph unicode="&#xe14a;" d="M921.6 908.8h-819.2c-56.32 0-102.4-46.080-102.4-102.4v-614.4c0-56.32 46.080-101.376 102.4-101.376h203.776v100.352h-204.8v472.064h821.248v-472.064h-204.8v-100.404h203.776c56.372 0 102.4 45.108 102.4 101.376v614.452c0 56.32-46.028 102.4-102.4 102.4zM133.172 738.304c-21.248 0-38.4 16.742-38.4 37.376s17.152 37.376 38.4 37.376c21.196 0 38.4-16.742 38.4-37.376s-17.204-37.376-38.4-37.376zM235.572 738.304c-21.248 0-38.4 16.742-38.4 37.376s17.152 37.376 38.4 37.376c21.196 0 38.4-16.742 38.4-37.376s-17.204-37.376-38.4-37.376zM922.676 743.936h-616.5v63.488h616.448v-63.488zM509.338 541.492l-248.422-246.886h153.6v-307.406h189.644v307.404h153.6l-248.422 246.888z" />
<glyph unicode="&#xe14b;" d="M921.6 704h-819.2c-56.32 0-102.4-46.080-102.4-102.4v-307.2c0-56.32 46.080-102.4 102.4-102.4h819.2c56.372 0 102.4 46.080 102.4 102.4v307.2c0 56.32-46.028 102.4-102.4 102.4zM921.6 294.4h-819.2v307.2h819.2v-307.2zM870.4 549.376h-204.8v-202.7h204.8v202.7zM614.4 549.376h-204.8v-202.7h204.8v202.7zM358.4 549.376h-204.8v-202.7h204.8v202.7z" />
<glyph unicode="&#xe14c;" d="M921.6 704h-819.2c-56.32 0-102.4-46.080-102.4-102.4v-307.2c0-56.32 46.080-102.4 102.4-102.4h819.2c56.372 0 102.4 46.080 102.4 102.4v307.2c0 56.32-46.028 102.4-102.4 102.4zM921.6 294.4h-819.2v307.2h819.2v-307.2zM614.4 549.376h-204.8v-202.7h204.8v202.7zM358.4 549.376h-204.8v-202.7h204.8v202.7z" />
<glyph unicode="&#xe14d;" d="M921.6 704h-819.2c-56.32 0-102.4-46.080-102.4-102.4v-307.2c0-56.32 46.080-102.4 102.4-102.4h819.2c56.372 0 102.4 46.080 102.4 102.4v307.2c0 56.32-46.028 102.4-102.4 102.4zM921.6 294.4h-819.2v307.2h819.2v-307.2zM358.4 549.376h-204.8v-202.7h204.8v202.7z" />
<glyph unicode="&#xe14e;" d="M921.6 704h-819.2c-56.32 0-102.4-46.080-102.4-102.4v-307.2c0-56.32 46.080-102.4 102.4-102.4h819.2c56.32 0 102.4 46.080 102.4 102.4v307.2c0 56.32-46.080 102.4-102.4 102.4zM921.6 294.4h-819.2v307.2h819.2v-307.2z" />
<glyph unicode="&#xe14f;" d="M512 611.84c-90.828 0-163.84-72.96-163.84-163.84s72.96-163.84 163.84-163.84 163.84 72.96 163.84 163.84-73.012 163.84-163.84 163.84zM512 342.988c-58.010 0-104.96 47.002-104.96 104.96 0 58.010 46.95 104.96 104.96 104.96s104.96-46.95 104.96-104.96c0-57.958-46.95-104.96-104.96-104.96zM204.8 488.96c-28.262 0-51.2-18.33-51.2-40.96s22.938-40.96 51.2-40.96 50.176 18.33 50.176 40.96-21.914 40.96-50.176 40.96zM763.238 699.238c-15.974 15.974-45.158 12.748-65.126-7.22-20.020-20.020-23.244-49.152-7.27-65.178s45.158-12.748 65.126 7.22c20.020 19.968 23.296 49.152 7.27 65.178zM819.2 488.96c-28.314 0-50.176-18.33-50.176-40.96s21.914-40.96 50.176-40.96 51.2 18.33 51.2 40.96-22.886 40.96-51.2 40.96zM512 192c-22.58 0-40.96-22.938-40.96-51.2 0-28.314 18.33-51.2 40.96-51.2s40.96 22.886 40.96 51.2c0 28.262-18.38 51.2-40.96 51.2zM267.98 256.82c-19.968-20.020-23.244-49.204-7.27-65.178s45.21-12.698 65.178 7.27c20.020 20.020 23.244 49.204 7.27 65.178-15.974 15.922-45.158 12.698-65.178-7.27zM258.202 696.678c-16.026-16.026-12.75-45.158 7.27-65.178 20.020-19.968 49.152-23.244 65.178-7.22s12.748 45.158-7.27 65.126c-19.968 20.022-49.204 23.246-65.178 7.272zM700.672 201.42c20.020-19.968 49.152-23.194 65.126-7.22s12.748 45.158-7.22 65.126c-20.020 20.020-49.204 23.244-65.178 7.27s-12.748-45.208 7.272-65.176zM512 704c22.58 0 40.96 22.938 40.96 51.2s-18.38 51.2-40.96 51.2-40.96-22.938-40.96-51.2 18.38-51.2 40.96-51.2z" />
</font>
</defs>
</svg>
